<?xml version="1.0" standalone="no"?>
<!DOCTYPE svg PUBLIC "-//W3C//DTD SVG 1.1//EN" "http://www.w3.org/Graphics/SVG/1.1/DTD/svg11.dtd" >
<svg xmlns="http://www.w3.org/2000/svg" xmlns:xlink="http://www.w3.org/1999/xlink" version="1.1">
<metadata>
Created by FontForge 20160405 at Thu Jun 14 07:45:03 2018
 By www-data
Copyright (c)2015, HK Grotesk Pro Latin by Alfredo Marco Pradil (ammpradil@gmail.com). HK Grotesk Pro is a trademark of Alfredo Marco Pradil.
</metadata>
<defs>
<font id="HKGroteskPro-Medium" horiz-adv-x="1060" >
  <font-face 
    font-family="HK Grotesk Pro Medium"
    font-weight="500"
    font-stretch="normal"
    units-per-em="2048"
    panose-1="0 0 6 0 0 0 0 0 0 0"
    ascent="1434"
    descent="-614"
    x-height="999"
    cap-height="1413"
    bbox="-971 -518 2642 2240"
    underline-thickness="82"
    underline-position="-328"
    unicode-range="U+0020-FB02"
  />
<missing-glyph horiz-adv-x="1162" 
d="M168 958h826v-958h-826v958zM919 75v808h-676v-808h676z" />
    <glyph glyph-name="fi" unicode="fi" horiz-adv-x="1075" 
d="M909 0h-157v856h-379v-856h-169v856h-171v143h171v80q0 113 49.5 192t134.5 119t190 40q102 0 181 -24.5t151 -73.5l-80 -119q-104 79 -244 79q-213 0 -213 -216v-77h536v-999z" />
    <glyph glyph-name="fl" unicode="fl" horiz-adv-x="1152" 
d="M803.5 37.5q-46.5 54.5 -46.5 169.5v1037q-81 48 -184 48q-205 0 -205 -216v-77h216l-1 -143h-215v-856h-169v856h-166v143h166v80q0 113 48.5 192t132 119t185.5 40q105 0 180.5 -21t180.5 -79v-1078q0 -57 21 -86.5t79 -29.5q31 0 77 8l1 -143q-85 -18 -154 -18
q-100 0 -146.5 54.5z" />
    <glyph glyph-name="f_f" unicode="ff" horiz-adv-x="1230" 
d="M204 856h-171v143h171v86q0 105 52 183t141.5 120t198.5 42q143 0 250 -67q82 67 209 67q82 0 163 -39l-56 -139q-51 27 -92 27q-70 0 -107.5 -36.5t-37.5 -112.5v-131h285v-143h-285v-856h-175v856h-377v-856h-169v856zM752 999v148q0 63 22 104q-76 41 -170 41
q-110 0 -170.5 -56.5t-60.5 -152.5v-84h379z" />
    <glyph glyph-name="f_f_i" unicode="ffi" horiz-adv-x="1630" 
d="M1467 0h-169v856h-378v-856h-170v856h-377v-856h-169v856h-171v143h171v86q0 105 52 183t141.5 120t198.5 42q75 0 145.5 -20t127.5 -61q50 40 115.5 60.5t140.5 20.5q102 0 181 -24.5t150 -73.5l-80 -119q-104 79 -243 79q-213 0 -213 -216v-77h547v-999zM750 1079
q0 92 35 165q-81 48 -181 48q-110 0 -170.5 -56.5t-60.5 -152.5v-84h377v80z" />
    <glyph glyph-name="f_f_l" unicode="ffl" horiz-adv-x="1701" 
d="M1345 37q-47 54 -47 170v1046q-76 39 -165 39q-213 0 -213 -216v-77h215v-143h-215v-856h-170v856h-377v-856h-169v856h-171v143h171v86q0 105 52 183t141.5 120t198.5 42q75 0 145.5 -20t128.5 -60q49 39 115 59.5t140 20.5q102 0 182.5 -25t159.5 -77v-1076
q0 -57 21.5 -86.5t82.5 -29.5q34 0 80 8l2 -143q-85 -18 -157 -18q-104 0 -151 54zM750 999v80q0 95 38 163q-79 50 -184 50q-110 0 -170.5 -56.5t-60.5 -152.5v-84h377z" />
    <glyph glyph-name="h_d_c_o.liga" unicode="hdco" horiz-adv-x="1778" 
d="M500.5 43q-177.5 104 -281.5 281.5t-104 388.5t104 388.5t281.5 281.5t388.5 104t388.5 -104t281.5 -281.5t104 -388.5t-104 -388.5t-281.5 -281.5t-388.5 -104t-388.5 104zM1241.5 104.5q161.5 94.5 255.5 256t94 352.5t-94 352.5t-255.5 255.5t-352.5 94t-352.5 -94
t-256 -255.5t-94.5 -352.5t94.5 -352.5t256 -256t352.5 -94.5t352.5 94.5zM461 419.5q-10 9.5 -10 24.5v537q0 15 10 26t24 11q16 0 26.5 -11t10.5 -26v-537q0 -15 -10.5 -24.5t-26.5 -9.5q-14 0 -24 9.5zM863.5 419.5q-9.5 9.5 -9.5 24.5v537q0 15 10 26t25 11t25 -11
t10 -26v-537q0 -15 -10 -24.5t-25 -9.5q-16 0 -25.5 9.5zM1268 420l-271 268q-8 11 -8 25q0 16 8 24l268 265q11 14 27 14q14 0 24.5 -10.5t10.5 -24.5t-10 -25l-244 -243l244 -244q10 -10 10 -25q0 -13 -11.5 -23.5t-25.5 -10.5t-22 10zM595.5 687.5q-9.5 9.5 -9.5 25.5
q0 15 9.5 25t25.5 10h133q15 0 26 -10t11 -25t-11 -25t-26 -10h-133q-16 0 -25.5 9.5z" />
    <glyph glyph-name=".notdef" horiz-adv-x="1162" 
d="M168 958h826v-958h-826v958zM919 75v808h-676v-808h676z" />
    <glyph glyph-name=".null" horiz-adv-x="0" 
 />
    <glyph glyph-name="nonmarkingreturn" horiz-adv-x="682" 
 />
    <glyph glyph-name="space" unicode=" " horiz-adv-x="513" 
 />
    <glyph glyph-name="exclam" unicode="!" horiz-adv-x="629" 
d="M231 1413h168l-19 -1005h-130zM223 235h184v-235h-184v235z" />
    <glyph glyph-name="quotedbl" unicode="&#x22;" horiz-adv-x="872" 
d="M200 1413h143v-470h-143v470zM528 1413h144v-470h-144v470z" />
    <glyph glyph-name="numbersign" unicode="#" horiz-adv-x="1408" 
d="M347 424h-243v121h269l71 347h-256v127h282l89 394h135l-86 -400h319l85 400h135l-88 -400h247v-121h-273l-74 -347h263v-121h-289l-89 -424h-134l89 424h-320l-87 -424h-135zM828 545l70 347h-319l-71 -347h320z" />
    <glyph glyph-name="dollar" unicode="$" horiz-adv-x="1145" 
d="M998 189.5q-56 -90.5 -154 -143t-220 -59.5v-247l-75 -2v249q-117 7 -216.5 55t-166.5 134.5t-87 206.5l174 44q17 -127 96 -199t200 -83v526q-123 48 -200 91t-130 115.5t-53 182.5q0 107 50.5 188.5t138 128t194.5 52.5v230h75v-231q118 -8 210.5 -65.5t154.5 -166.5
l-146 -90q-76 142 -219 163v-450l20 -8q131 -50 213 -94.5t139.5 -123t57.5 -197.5q0 -116 -56 -206.5zM395.5 941.5q53.5 -49.5 153.5 -92.5v423q-59 -5 -106.5 -32t-74 -72t-26.5 -100q0 -77 53.5 -126.5zM759.5 182.5q57.5 32.5 88 84t30.5 114.5q0 66 -33 113.5t-87 81
t-134 65.5v-497q78 6 135.5 38.5z" />
    <glyph glyph-name="percent" unicode="%" horiz-adv-x="1496" 
d="M248.5 832q-62.5 44 -95 117.5t-32.5 159.5t32 159.5t93 117.5t144 44q79 0 141.5 -42t98 -115.5t35.5 -164.5t-34.5 -164t-96 -114.5t-137.5 -41.5q-86 0 -148.5 44zM1094 1413h121l-814 -1413h-121zM475 930q35 26 54.5 72.5t19.5 105.5q0 89 -42.5 147.5t-116.5 58.5
t-113.5 -59t-39.5 -146t41 -146t119 -59q43 0 78 26zM958.5 27q-62.5 44 -95 117.5t-32.5 159.5t32 159.5t93 117.5t144 44q79 0 141.5 -42t98 -115.5t35.5 -164.5t-34.5 -164t-96 -114.5t-137.5 -41.5q-86 0 -148.5 44zM1185 125q35 26 54.5 72.5t19.5 105.5
q0 89 -42.5 147.5t-116.5 58.5t-113.5 -59t-39.5 -146t41 -146t119 -59q43 0 78 26z" />
    <glyph glyph-name="ampersand" unicode="&#x26;" horiz-adv-x="1404" 
d="M1181 -69l-189 219q-86 -81 -196 -124.5t-236 -43.5q-128 0 -228 40.5t-157 118t-57 184.5q0 103 46.5 181.5t119.5 134.5t177 113q-49 54 -85.5 101t-67 113t-30.5 135q0 96 52 169.5t138 114t184 40.5q97 0 178 -42.5t128.5 -116.5t47.5 -164q0 -87 -40 -156
t-104.5 -121t-157.5 -106l282 -323q67 133 73 292l165 -16q-7 -114 -40 -215.5t-88 -185.5l205 -235zM468 1004q26 -51 54 -87.5t73 -90.5q81 44 135 82.5t86.5 86t32.5 106.5q0 53 -24 97t-69 70t-103 26q-59 0 -107 -24t-76 -68t-28 -102q0 -45 26 -96zM742 162.5
q85 36.5 151 103.5l-326 378q-90 -50 -150 -94.5t-97.5 -101t-37.5 -126.5q0 -93 74 -144.5t200 -51.5q101 0 186 36.5z" />
    <glyph glyph-name="quotesingle" unicode="'" horiz-adv-x="543" 
d="M200 1413h143v-470h-143v470z" />
    <glyph glyph-name="parenleft" unicode="(" horiz-adv-x="564" 
d="M231.5 91.5q-51.5 137.5 -78.5 283t-27 261.5q0 194 56.5 406t171.5 371h149q-79 -106 -131.5 -241.5t-77 -274t-24.5 -261.5q0 -117 28.5 -264t81 -284.5t121.5 -225.5h-149q-69 92 -120.5 229.5z" />
    <glyph glyph-name="parenright" unicode=")" horiz-adv-x="564" 
d="M63 -138q69 88 121.5 225.5t81 284.5t28.5 264q0 123 -24.5 261.5t-77 274t-131.5 241.5h149q115 -159 171.5 -371t56.5 -406q0 -116 -27 -261.5t-78.5 -283t-120.5 -229.5h-149z" />
    <glyph glyph-name="asterisk" unicode="*" horiz-adv-x="924" 
d="M216 928l168 178l-241 33l51 145l220 -94l-31 223h160l-32 -223l221 94l50 -145l-242 -33l169 -178l-131 -88l-116 226l-117 -226z" />
    <glyph glyph-name="plus" unicode="+" horiz-adv-x="1247" 
d="M559 560h-449v130h449v449h130v-449h448v-130h-448v-449h-130v449z" />
    <glyph glyph-name="comma" unicode="," horiz-adv-x="646" 
d="M335 263h195l-264 -574h-115z" />
    <glyph glyph-name="hyphen" unicode="-" horiz-adv-x="875" 
d="M160 680h555v-130h-555v130z" />
    <glyph glyph-name="period" unicode="." horiz-adv-x="634" 
d="M231 235h171v-235h-171v235z" />
    <glyph glyph-name="slash" unicode="/" horiz-adv-x="883" 
d="M726 1413h159l-728 -1841h-160z" />
    <glyph glyph-name="zero" unicode="0" horiz-adv-x="1161" 
d="M201 198q-108 215 -108 509q0 296 104.5 510.5t378.5 214.5q176 0 287 -103t160 -267.5t49 -357.5q0 -192 -47.5 -354.5t-155.5 -264.5t-278 -102q-282 0 -390 215zM822.5 308.5q67.5 158.5 67.5 398.5q0 241 -70 398.5t-244 157.5q-179 0 -244.5 -158t-65.5 -398
t67.5 -398.5t252.5 -158.5q169 0 236.5 158.5z" />
    <glyph glyph-name="one" unicode="1" horiz-adv-x="1161" 
d="M764 1413v-1413h-173v1052h-347v135h223q65 0 97.5 28t32.5 88v110h167z" />
    <glyph glyph-name="two" unicode="2" horiz-adv-x="1161" 
d="M1079 160v-160h-994v150q198 122 358 247.5t273.5 284t113.5 328.5q0 118 -66.5 189t-190.5 71q-146 0 -218.5 -96t-75.5 -249l-173 11q0 137 55.5 249t161 178t248.5 66q128 0 226.5 -50t153.5 -145.5t55 -227.5q0 -166 -98 -328t-245.5 -294t-302.5 -224h719z" />
    <glyph glyph-name="three" unicode="3" horiz-adv-x="1161" 
d="M311.5 34.5q-114.5 51.5 -180.5 152.5t-66 242l168 10q0 -90 42.5 -156.5t119 -102t176.5 -35.5q94 0 169.5 32.5t119.5 94.5t44 147q0 107 -59.5 163t-146 73.5t-196.5 16.5v140q165 0 245 53.5t80 172.5q0 70 -33.5 121.5t-93 79t-133.5 27.5q-80 0 -140.5 -30
t-94 -85.5t-34.5 -130.5l-166 11q0 121 57 211.5t156 139t220 48.5q117 0 216 -46t157.5 -130t58.5 -195q0 -113 -66 -190.5t-182 -114.5q150 -31 236.5 -120t86.5 -228q0 -131 -67 -227t-182 -146t-254 -50q-143 0 -257.5 51.5z" />
    <glyph glyph-name="four" unicode="4" horiz-adv-x="1161" 
d="M1124 496v-161h-229v-335h-173v335h-690v108l709 970h154v-917h229zM722 496v654l-466 -654h466z" />
    <glyph glyph-name="five" unicode="5" horiz-adv-x="1161" 
d="M841.5 888.5q106.5 -63.5 168.5 -173t62 -240.5q0 -132 -67 -245t-182 -180t-250 -67q-119 0 -221 53.5t-171.5 148t-95.5 212.5l163 45q28 -131 111 -215t214 -84q90 0 163.5 46t115 123t41.5 165t-38.5 160.5t-109 114.5t-162.5 42q-84 0 -161 -41.5t-127 -116.5
l-167 45l131 732h747v-162h-607l-72 -396q133 97 281 97q127 0 233.5 -63.5z" />
    <glyph glyph-name="six" unicode="6" horiz-adv-x="1161" 
d="M827 872.5q113 -64.5 179 -174t66 -238.5t-66 -238.5t-178.5 -174t-245.5 -64.5t-246 64.5t-179 174t-66 238.5q0 68 19 132t55 120l425 701h201l-294 -483q39 7 85 7q132 0 245 -64.5zM741.5 189.5q73.5 42.5 116 114t42.5 156.5q0 84 -43 156t-116 114.5t-159 42.5
t-159.5 -42.5t-116.5 -114.5t-43 -156q0 -85 43 -157t116 -114t160 -42q86 0 159.5 42.5z" />
    <glyph glyph-name="seven" unicode="7" horiz-adv-x="1161" 
d="M1087 1413v-98l-671 -1315h-194l654 1252h-803v161h1014z" />
    <glyph glyph-name="eight" unicode="8" horiz-adv-x="1161" 
d="M338 30.5q-112 47.5 -180.5 141.5t-68.5 227q0 128 66.5 224t180.5 142q-80 47 -124.5 125.5t-44.5 175.5q0 112 58 194.5t153 126t202 43.5q112 0 206.5 -45t150.5 -128.5t56 -194.5q0 -96 -45.5 -174t-124.5 -123q116 -48 180.5 -143.5t64.5 -221.5
q0 -134 -68.5 -228.5t-180 -141.5t-240.5 -47t-241 47.5zM708.5 845.5q54.5 28.5 85.5 81t31 122.5q0 71 -31 124t-86 81.5t-125 28.5q-65 0 -120 -26t-88.5 -77t-33.5 -123q0 -71 30 -125.5t85 -84.5t128 -30q70 0 124.5 28.5zM736.5 165.5q71.5 31.5 114 95.5t42.5 155
q0 86 -40.5 150.5t-112 99t-162.5 34.5q-92 0 -164 -34.5t-112.5 -98.5t-40.5 -149q0 -92 43 -156t115.5 -96t158.5 -32q87 0 158.5 31.5z" />
    <glyph glyph-name="nine" unicode="9" horiz-adv-x="1161" 
d="M1060 821q-19 -64 -55 -120l-425 -701h-201l294 483q-39 -7 -85 -7q-132 0 -245 64.5t-179 174t-66 238.5t66 238.5t178.5 174t245.5 64.5t246 -64.5t179 -174t66 -238.5q0 -68 -19 -132zM313 797q43 -72 116 -114.5t159 -42.5t159.5 42.5t116.5 114.5t43 156
q0 85 -43 157t-116 114t-160 42q-86 0 -159.5 -42.5t-116 -114t-42.5 -156.5q0 -84 43 -156z" />
    <glyph glyph-name="colon" unicode=":" horiz-adv-x="657" 
d="M236 954h185v-234h-185v234zM236 235h185v-235h-185v235z" />
    <glyph glyph-name="semicolon" unicode=";" horiz-adv-x="668" 
d="M293 954h184v-234h-184v234zM302 263h194l-263 -574h-116z" />
    <glyph glyph-name="less" unicode="&#x3c;" horiz-adv-x="1292" 
d="M83 606l1023 583l64 -112l-825 -471l825 -472l-64 -111z" />
    <glyph glyph-name="equal" unicode="=" horiz-adv-x="1304" 
d="M252 950h800v-145h-800v145zM252 539h800v-145h-800v145z" />
    <glyph glyph-name="greater" unicode="&#x3e;" horiz-adv-x="1292" 
d="M122 134l825 472l-825 471l64 112l1023 -583l-1023 -583z" />
    <glyph glyph-name="question" unicode="?" horiz-adv-x="1036" 
d="M438 563q0 75 25.5 125t61.5 79t97 64q55 31 87.5 55.5t54.5 65t22 100.5q0 116 -73.5 176t-205.5 60q-134 0 -204 -69.5t-70 -197.5h-150q0 126 52 218.5t146.5 141.5t219.5 49q124 0 222.5 -44t155 -130t56.5 -207q0 -98 -32 -162t-76 -99.5t-114 -76.5
q-47 -27 -72 -45t-42 -43.5t-17 -60.5v-158h-144v159zM420 235h184v-235h-184v235z" />
    <glyph glyph-name="at" unicode="@" horiz-adv-x="2080" 
d="M582 -245.5q-204 106.5 -323.5 304t-119.5 459.5q0 257 115.5 466.5t323 330t472.5 120.5t468.5 -118.5t315 -320.5t111.5 -445q0 -161 -51 -303t-155 -230t-255 -88q-100 0 -159.5 50.5t-73.5 144.5q-8 42 -8 89l1 26q-64 -87 -152 -138t-190 -51q-103 0 -175 49
t-108.5 134.5t-36.5 192.5q0 141 59 287t171.5 242.5t262.5 96.5q106 0 174.5 -51.5t93.5 -142.5l31 144l137 -2q-16 -81 -55 -253q-43 -187 -66.5 -305.5t-27.5 -204.5q-1 -12 -1 -34q0 -68 27 -101t92 -33q113 0 187.5 69.5t109 180t34.5 234.5q0 206 -94 377.5t-267 272
t-399 100.5q-228 0 -405 -103t-275 -281.5t-98 -398.5q0 -226 102 -392.5t275.5 -254.5t383.5 -88q70 0 132.5 10.5t127.5 32.5l47 -128q-76 -27 -150.5 -40t-158.5 -13q-246 0 -450 106.5zM1117 263.5q86 76.5 131 192.5t45 229t-49 172.5t-150 59.5q-119 0 -205.5 -76
t-131.5 -191t-45 -228q0 -114 50.5 -174.5t150.5 -60.5q118 0 204 76.5z" />
    <glyph glyph-name="A" unicode="A" horiz-adv-x="1315" 
d="M588 1413h140l538 -1413h-191l-118 330h-595l-120 -330h-192zM902 481l-243 680l-242 -680h485z" />
    <glyph glyph-name="B" unicode="B" horiz-adv-x="1272" 
d="M210 1413h449q120 0 218 -38.5t156.5 -121.5t58.5 -209q0 -67 -24.5 -126.5t-65.5 -102.5t-91 -65q73 -21 130 -73t88.5 -125t31.5 -155q0 -125 -59 -214.5t-162 -136t-233 -46.5h-497v1413zM696 810q65 0 117.5 24.5t84 75t31.5 124.5q0 107 -71 163t-196 56h-276v-443
h310zM709 168q136 0 207 62.5t71 185.5q0 70 -31 125t-89 85.5t-137 30.5h-344v-489h323z" />
    <glyph glyph-name="C" unicode="C" horiz-adv-x="1447" 
d="M412 77.5q-148 94.5 -222 258.5t-74 372q0 209 74.5 372.5t223 257.5t362.5 94q209 0 359 -99t230 -291l-165 -66q-48 149 -155.5 218.5t-270.5 69.5q-159 0 -267.5 -69t-162 -192.5t-53.5 -287.5q0 -165 51 -291.5t158.5 -199.5t270.5 -73q159 0 264.5 70t168.5 221
l163 -67q-83 -192 -235.5 -292t-360.5 -100q-211 0 -359 94.5z" />
    <glyph glyph-name="D" unicode="D" horiz-adv-x="1440" 
d="M210 1413h391q235 0 397 -83t245 -243.5t83 -390.5q0 -220 -84.5 -376t-247.5 -238t-395 -82h-389v1413zM582 162q275 0 421.5 132t146.5 409q0 281 -134 414.5t-418 133.5h-212v-1089h196z" />
    <glyph glyph-name="E" unicode="E" horiz-adv-x="1264" 
d="M210 1413h929v-162h-753v-461h685v-163h-685v-460h753v-167h-929v1413z" />
    <glyph glyph-name="F" unicode="F" horiz-adv-x="1251" 
d="M210 1413h970v-162h-794v-461h699v-163h-699v-627h-176v1413z" />
    <glyph glyph-name="G" unicode="G" horiz-adv-x="1539" 
d="M412 77.5q-148 94.5 -222 258.5t-74 372q0 209 74 372.5t222.5 257.5t363.5 94q209 0 358.5 -99t229.5 -291l-157 -66q-106 301 -433 301q-159 0 -267.5 -72t-162 -198.5t-53.5 -291.5t51 -294.5t158.5 -204.5t270.5 -75q181 0 295 93.5t139 270.5l4 92h-336v143h509
v-740h-140l-15 236q-66 -121 -183 -187t-273 -66q-211 0 -359 94.5z" />
    <glyph glyph-name="H" unicode="H" horiz-adv-x="1473" 
d="M210 1413h176v-622h701v622h176v-1413h-176v628h-701v-628h-176v1413z" />
    <glyph glyph-name="I" unicode="I" horiz-adv-x="597" 
d="M210 1413h176v-1413h-176v1413z" />
    <glyph glyph-name="J" unicode="J" horiz-adv-x="1161" 
d="M288 40q-101 57 -158.5 157t-66.5 225l173 19q9 -133 82.5 -213.5t203.5 -80.5q152 0 215.5 89.5t63.5 274.5v740h-560v162h737v-900q0 -249 -111.5 -389.5t-344.5 -140.5q-133 0 -234 57z" />
    <glyph glyph-name="K" unicode="K" horiz-adv-x="1464" 
d="M210 1413h176v-812l768 812h237l-549 -564l571 -849h-218l-475 730l-334 -344v-386h-176v1413z" />
    <glyph glyph-name="L" unicode="L" horiz-adv-x="1070" 
d="M210 1413h176v-1246h633v-167h-809v1413z" />
    <glyph glyph-name="M" unicode="M" horiz-adv-x="1784" 
d="M1574 1413v-1413h-170v1175l-426 -1057h-172l-426 1057v-1175h-170v1413h241l441 -1098l441 1098h241z" />
    <glyph glyph-name="N" unicode="N" horiz-adv-x="1437" 
d="M1227 1413v-1413h-182l-665 1127v-1127h-170v1413h180l667 -1124v1124h170z" />
    <glyph glyph-name="O" unicode="O" horiz-adv-x="1548" 
d="M409 81q-148 98 -221 262.5t-73 363.5t73 363t221 262t364 98q217 0 365.5 -98t222 -262t73.5 -363t-73.5 -363.5t-222 -262.5t-365.5 -98q-216 0 -364 98zM1041.5 216q106.5 76 156.5 203.5t50 287.5q0 159 -50 286.5t-156.5 203.5t-268.5 76q-161 0 -267 -76
t-156 -203.5t-50 -286.5t50 -287t156 -204t267 -76q162 0 268.5 76z" />
    <glyph glyph-name="P" unicode="P" horiz-adv-x="1177" 
d="M210 1413h406q143 0 252.5 -48t170.5 -140t61 -218t-60 -216t-169.5 -136.5t-254.5 -46.5h-231v-608h-175v1413zM616 773q155 0 232 59.5t77 174.5t-78.5 178t-230.5 63h-231v-475h231z" />
    <glyph glyph-name="Q" unicode="Q" horiz-adv-x="1576" 
d="M1169 105q-78 -59 -177.5 -90.5t-218.5 -31.5q-216 0 -364.5 98t-221.5 262.5t-73 363.5t73 363t221.5 262t364.5 98t365 -98t222 -262t73 -363q0 -144 -38.5 -271.5t-114.5 -223.5l171 -161l-109 -109zM1042 222l-225 215l114 104l216 -206q50 72 75 167t25 205
q0 159 -50 286.5t-156 203.5t-268 76q-161 0 -267 -76t-156 -203.5t-50 -286.5q0 -160 50 -287.5t156 -203.5t267 -76q162 0 269 82z" />
    <glyph glyph-name="R" unicode="R" horiz-adv-x="1265" 
d="M210 1413h416q136 0 244.5 -47.5t170.5 -138t62 -215.5q0 -137 -79 -233t-213 -133l392 -646h-201l-362 629q-28 -2 -90 -2h-164v-627h-176v1413zM641 771q137 4 212 66t75 172q0 115 -80 180.5t-221 65.5h-239v-484h253z" />
    <glyph glyph-name="S" unicode="S" horiz-adv-x="1145" 
d="M354 32q-108 46 -181 135.5t-94 215.5l174 44q18 -138 109.5 -211t227.5 -73q87 0 152.5 31t100.5 85t35 122q0 75 -43 127t-106 84.5t-172 75.5q-128 50 -205 92t-131.5 115.5t-54.5 184.5q0 112 55 196t149.5 129t208.5 45q134 0 238.5 -57.5t171.5 -176.5l-146 -90
q-90 167 -270 167q-65 0 -117.5 -26.5t-83 -73t-30.5 -105.5q0 -66 40 -111.5t99.5 -75.5t163.5 -70q132 -51 213 -95t138.5 -122.5t57.5 -197.5q0 -122 -61.5 -215t-168 -144t-237.5 -51q-125 0 -233 46z" />
    <glyph glyph-name="T" unicode="T" horiz-adv-x="1228" 
d="M526 1255h-476v158h1128v-158h-476v-1255h-176v1255z" />
    <glyph glyph-name="U" unicode="U" horiz-adv-x="1394" 
d="M308.5 128q-128.5 145 -128.5 409v876h176v-857q0 -200 80 -301t260 -101q181 0 261.5 101.5t80.5 304.5v853h176v-866q0 -269 -129 -416.5t-389 -147.5q-259 0 -387.5 145z" />
    <glyph glyph-name="V" unicode="V" horiz-adv-x="1356" 
d="M1308 1413l-560 -1413h-138l-562 1413h195l437 -1135l435 1135h193z" />
    <glyph glyph-name="W" unicode="W" horiz-adv-x="1987" 
d="M61 1413h183l329 -1158l351 1080h140l350 -1080l329 1158h183l-413 -1413h-174l-345 1057l-345 -1057h-175z" />
    <glyph glyph-name="X" unicode="X" horiz-adv-x="1331" 
d="M545 711l-479 702h210l390 -589l389 589h211l-480 -702l486 -711h-210l-398 591l-395 -591h-210z" />
    <glyph glyph-name="Y" unicode="Y" horiz-adv-x="1325" 
d="M571 543l-535 870h213l412 -699l414 699h214l-535 -870v-543h-183v543z" />
    <glyph glyph-name="Z" unicode="Z" horiz-adv-x="1294" 
d="M1202 1280l-879 -1120h877v-160h-1119v128l882 1123h-836v162h1075v-133z" />
    <glyph glyph-name="bracketleft" unicode="[" horiz-adv-x="654" 
d="M203 1548h392v-115h-254v-1455h254v-116h-392v1686z" />
    <glyph glyph-name="backslash" unicode="\" horiz-adv-x="918" 
d="M-5 1514h160l767 -1943h-159z" />
    <glyph glyph-name="bracketright" unicode="]" horiz-adv-x="654" 
d="M59 -138v116h254v1455h-254v115h392v-1686h-392z" />
    <glyph glyph-name="asciicircum" unicode="^" horiz-adv-x="1185" 
d="M591 1475l498 -1031h-180l-318 707l-315 -707h-180z" />
    <glyph glyph-name="underscore" unicode="_" horiz-adv-x="1141" 
d="M160 0h821v-130h-821v130z" />
    <glyph glyph-name="grave" unicode="`" horiz-adv-x="511" 
d="M48 1413h182l221 -300h-127z" />
    <glyph glyph-name="a" unicode="a" 
d="M732.5 966.5q92.5 -49.5 140.5 -141.5t48 -216v-609h-141l-11 178q-51 -94 -145 -144.5t-201 -50.5q-102 0 -181.5 37.5t-124.5 108t-45 167.5q0 149 108.5 217.5t303.5 68.5h283q-1 100 -25 162.5t-79.5 93t-149.5 30.5q-171 0 -272 -156l-130 94q76 104 172 157t228 53
q129 0 221.5 -49.5zM659.5 201.5q81.5 73.5 107.5 191.5v65h-273q-123 0 -185.5 -45t-62.5 -123q0 -74 55 -118t155 -44q122 0 203.5 73.5z" />
    <glyph glyph-name="b" unicode="b" horiz-adv-x="1191" 
d="M482.5 35q-89.5 52 -137.5 146v-181h-175v1413h175v-594q48 94 136 145.5t195 51.5q133 0 229.5 -69t147 -186.5t50.5 -260.5t-50.5 -260.5t-146.5 -187t-227 -69.5q-107 0 -196.5 52zM799.5 187q66.5 47 100 128.5t33.5 184.5t-33.5 185t-100 129.5t-161.5 47.5
t-164.5 -47t-106.5 -129.5t-37 -185.5t36.5 -185t106.5 -128.5t165 -46.5t161.5 47z" />
    <glyph glyph-name="c" unicode="c" horiz-adv-x="1012" 
d="M296 52.5q-104 69.5 -158 187t-54 258.5q0 136 52 254.5t155.5 191t251.5 72.5q142 0 249.5 -71.5t162.5 -209.5l-161 -63q-30 88 -96.5 139t-154.5 51q-95 0 -160 -50.5t-96 -133.5t-31 -180q0 -98 31 -180t95.5 -131.5t160.5 -49.5q89 0 155 50.5t93 136.5l154 -58
q-47 -134 -152.5 -208.5t-247.5 -74.5q-145 0 -249 69.5z" />
    <glyph glyph-name="d" unicode="d" horiz-adv-x="1200" 
d="M294 52.5q-100 69.5 -154 187.5t-54 260q0 141 53.5 259t153 187.5t231.5 69.5q107 0 196.5 -52t137.5 -145v594h172v-1413h-158l-7 189q-48 -98 -138.5 -152t-199.5 -54q-133 0 -233 69.5zM731 184q69 47 105 129.5t36 186.5q0 103 -36 185.5t-105 129.5t-164 47
t-165 -47.5t-107 -130t-37 -184.5q0 -103 37 -185.5t107 -130t165 -47.5t164 47z" />
    <glyph glyph-name="e" unicode="e" horiz-adv-x="1072" 
d="M303 51q-108 68 -163 184.5t-55 259.5q0 141 53 260t157.5 190t251.5 71q157 0 256.5 -72t143.5 -180.5t44 -222.5q0 -27 -2.5 -53.5t-5.5 -38.5h-719q10 -147 86.5 -229.5t214.5 -82.5q84 0 149 27.5t126 92.5l118 -103q-83 -89 -177.5 -130t-216.5 -41q-153 0 -261 68z
M823 573q0 43 -4 63q-9 65 -42.5 118.5t-92 86t-138.5 32.5q-123 0 -195 -81.5t-87 -218.5h559z" />
    <glyph glyph-name="f" unicode="f" horiz-adv-x="700" 
d="M233 856h-200v143h201v148q0 90 38.5 154t105.5 96.5t152 32.5q79 0 159 -39l-56 -139q-49 27 -88 27q-65 0 -101 -36.5t-36 -112.5v-131h273v-143h-273v-856h-175v856z" />
    <glyph glyph-name="g" unicode="g" horiz-adv-x="1044" 
d="M779.5 89.5q81.5 -23.5 137.5 -80.5t56 -159q0 -100 -54.5 -171t-150.5 -107t-220 -36q-144 0 -247.5 44t-157.5 121.5t-54 178.5q0 24 3 44l138 123q-119 62 -119 193q0 63 26 111t77 86q-41 46 -63 104t-22 124q0 101 52 181t141 125t196 45q70 0 133 -19.5t114 -55.5
l142 123l88 -110l-137 -114q50 -81 50 -184t-51 -182t-139 -122t-195 -43q-112 0 -204 47q-62 -30 -62 -87q0 -44 33.5 -69t87 -37t155.5 -26l35 -5q130 -19 211.5 -42.5zM408 856q-50 -28 -77 -78t-27 -114t26.5 -112.5t76 -76t116.5 -27.5t116 27t75 76t26 112
q0 65 -26 115t-75 78t-115 28t-116 -28zM740.5 -288q71.5 43 71.5 120q0 52 -35.5 81t-96 43t-171.5 28q-9 1 -65.5 8t-108.5 19l-94 -123l3 -30q15 -92 96.5 -140.5t206.5 -48.5q122 0 193.5 43z" />
    <glyph glyph-name="h" unicode="h" horiz-adv-x="1142" 
d="M170 1413h172v-566q50 83 129.5 126t173.5 43q117 0 196.5 -52.5t118.5 -141.5t41 -200v-622h-172v591q0 271 -223 271q-84 0 -143.5 -40t-90 -110.5t-30.5 -162.5v-549h-172v1413z" />
    <glyph glyph-name="i" unicode="i" horiz-adv-x="504" 
d="M164 1413h177v-212h-177v212zM168 999h169v-999h-169v999z" />
    <glyph glyph-name="j" unicode="j" horiz-adv-x="511" 
d="M167 1413h178v-212h-178v212zM-16.5 -425.5q-46.5 9.5 -81.5 22.5l44 148q28 -12 57 -19t49 -7q61 0 90 36.5t29 113.5v1130h170v-1118q0 -145 -68.5 -230.5t-204.5 -85.5q-38 0 -84.5 9.5z" />
    <glyph glyph-name="k" unicode="k" horiz-adv-x="1100" 
d="M170 1413h169v-915l469 501h221l-367 -378l419 -621h-200l-334 516l-208 -221v-295h-169v1413z" />
    <glyph glyph-name="l" unicode="l" horiz-adv-x="558" 
d="M208.5 37.5q-46.5 54.5 -46.5 169.5v1206h170v-1161q0 -56 21 -86t78 -30q31 0 77 8l1 -143q-83 -18 -154 -18q-100 0 -146.5 54.5z" />
    <glyph glyph-name="m" unicode="m" horiz-adv-x="1742" 
d="M168 999h164v-157q42 88 118 131t173 43q108 0 188 -50.5t115 -155.5q48 103 133.5 154.5t193.5 51.5q118 0 196 -55t115.5 -151t37.5 -221v-589h-170v569q0 141 -49.5 215t-162.5 74q-75 0 -132 -36.5t-87.5 -100t-30.5 -143.5v-578h-169v594q0 125 -51 194.5t-160 69.5
q-76 0 -133 -36.5t-87.5 -100t-30.5 -143.5v-578h-170z" />
    <glyph glyph-name="n" unicode="n" horiz-adv-x="1137" 
d="M168 999h169v-152q50 83 131 126t175 43q117 0 195.5 -52.5t117 -141.5t40.5 -200v-622h-169v591q0 126 -59 197t-171 71q-122 0 -191 -72.5t-69 -210.5v-576h-169v999z" />
    <glyph glyph-name="o" unicode="o" horiz-adv-x="1145" 
d="M316 52.5q-112 69.5 -174.5 188t-62.5 261.5q0 141 62.5 259t174.5 186.5t255 68.5t256 -68.5t176 -186.5t63 -259q0 -142 -63 -261t-176 -188.5t-256 -69.5t-255 69.5zM743 180q72 50 109.5 134.5t37.5 187.5q0 102 -37.5 185.5t-109.5 132.5t-172 49
q-99 0 -170.5 -48.5t-108.5 -132t-37 -186.5t37 -188t108.5 -134.5t170.5 -49.5q100 0 172 50z" />
    <glyph glyph-name="p" unicode="p" horiz-adv-x="1191" 
d="M170 999h175v-180q48 93 137.5 145t196.5 52q131 0 227 -69.5t146.5 -187t50.5 -260.5t-50.5 -260.5t-147 -186.5t-229.5 -69q-107 0 -195 51.5t-136 145.5v-594h-175v1413zM799.5 184.5q66.5 47.5 100 129.5t33.5 185t-33.5 184.5t-100 128.5t-161.5 47t-165 -46.5
t-106.5 -128t-36.5 -185.5q0 -103 37 -185.5t106.5 -129.5t164.5 -47t161.5 47.5z" />
    <glyph glyph-name="q" unicode="q" horiz-adv-x="1191" 
d="M846 -414v594q-48 -94 -136 -145.5t-195 -51.5q-133 0 -229.5 69t-147 186.5t-50.5 260.5t50.5 260.5t146.5 187t227 69.5q107 0 196.5 -52t137.5 -145v180h175v-1413h-175zM717.5 184q69.5 47 106.5 129.5t37 185.5q0 104 -36.5 185.5t-106.5 128t-165 46.5t-161.5 -47
t-100 -128.5t-33.5 -184.5t33.5 -185t100 -129.5t161.5 -47.5t164.5 47z" />
    <glyph glyph-name="r" unicode="r" horiz-adv-x="800" 
d="M168 999h165v-196q23 69 70 117t105.5 72t119.5 24q46 0 89 -13.5t76 -41.5l-78 -140q-54 30 -112 30q-68 0 -130 -39t-101.5 -122.5t-39.5 -208.5v-481h-164v999z" />
    <glyph glyph-name="s" unicode="s" horiz-adv-x="922" 
d="M283 18q-84 35 -143 96.5t-84 137.5l137 60q29 -80 96 -133.5t169 -53.5q67 0 114 21.5t70.5 58.5t23.5 82q0 50 -30.5 80.5t-76.5 47.5t-127 37q-103 26 -166.5 51.5t-108.5 80t-45 146.5q0 91 47 155.5t127 97.5t178 33q120 0 212.5 -55t147.5 -156l-131 -71
q-36 66 -94.5 106.5t-140.5 40.5q-84 0 -134 -36t-50 -93q0 -44 29 -71.5t73 -44t120 -36.5q107 -29 174 -57.5t115 -88t48 -159.5q0 -101 -50 -171.5t-133.5 -105.5t-183.5 -35q-99 0 -183 35z" />
    <glyph glyph-name="t" unicode="t" horiz-adv-x="720" 
d="M277 60.5q-74 77.5 -74 218.5v577h-165v143h167v276l167 122v-398h270v-143h-270v-549q0 -92 36.5 -133t108.5 -41q32 0 65.5 8.5t58.5 19.5l1 -154q-26 -10 -68 -17t-86 -7q-137 0 -211 77.5z" />
    <glyph glyph-name="u" unicode="u" horiz-adv-x="1136" 
d="M297.5 35.5q-78.5 52.5 -116.5 142t-40 200.5v621h168v-591q0 -126 59 -197t171 -71q122 0 191.5 72.5t69.5 210.5v576h168v-999h-168v152q-49 -83 -131 -126t-176 -43q-117 0 -195.5 52.5z" />
    <glyph glyph-name="v" unicode="v" horiz-adv-x="1001" 
d="M21 999h185l294 -782l295 782h185l-409 -999h-142z" />
    <glyph glyph-name="w" unicode="w" horiz-adv-x="1479" 
d="M40 999h181l202 -742l242 742h150l241 -741l204 741h181l-298 -999h-156l-247 763l-248 -763h-156z" />
    <glyph glyph-name="x" unicode="x" horiz-adv-x="1014" 
d="M394 502l-359 497h207l264 -381l263 381h209l-360 -497l360 -502h-208l-264 385l-264 -385h-207z" />
    <glyph glyph-name="y" unicode="y" horiz-adv-x="1024" 
d="M435 17l-414 982h187l317 -786l290 786h186l-556 -1428h-185z" />
    <glyph glyph-name="z" unicode="z" horiz-adv-x="987" 
d="M911 870l-619 -727h615v-143h-844v119l635 737h-603v143h816v-129z" />
    <glyph glyph-name="braceleft" unicode="{" horiz-adv-x="623" 
d="M263 -74q-55 70 -55 192v336q0 47 -17 76t-42.5 45t-64.5 30v119q40 13 65.5 29t42 47.5t16.5 84.5v356q0 125 56 192.5t163 67.5h123v-112h-67q-69 0 -99.5 -39t-30.5 -112v-355q0 -88 -33 -138t-98 -75v-11q64 -27 97.5 -75t33.5 -127v-336q0 -71 30.5 -112t93.5 -41
h73v-112h-129q-103 0 -158 70z" />
    <glyph glyph-name="bar" unicode="|" horiz-adv-x="636" 
d="M255 1534h127v-2046h-127v2046z" />
    <glyph glyph-name="braceright" unicode="}" horiz-adv-x="623" 
d="M73 -144v112h73q63 0 93.5 41t30.5 112v336q0 79 33.5 127t97.5 75v11q-65 25 -98 75t-33 138v355q0 73 -30.5 112t-99.5 39h-67v112h123q107 0 163 -67.5t56 -192.5v-356q0 -53 16.5 -84.5t42 -47.5t65.5 -29v-119q-39 -14 -64.5 -30t-42.5 -45t-17 -76v-336
q0 -122 -55 -192t-158 -70h-129z" />
    <glyph glyph-name="asciitilde" unicode="~" horiz-adv-x="1245" 
d="M702 378.5q-40 19.5 -65 47.5t-56 73q-24 35 -41.5 55.5t-41.5 34t-55 13.5q-55 0 -86 -51.5t-31 -140.5h-130q0 92 30.5 161.5t86.5 108t130 38.5q60 0 102 -20.5t68.5 -49t57.5 -74.5q35 -51 61.5 -75t66.5 -24q36 0 63.5 27t43 76t15.5 112h130q0 -97 -31.5 -172.5
t-88.5 -117t-132 -41.5q-57 0 -97 19.5z" />
    <glyph glyph-name="uni00A0" unicode="&#xa0;" horiz-adv-x="563" 
 />
    <glyph glyph-name="exclamdown" unicode="&#xa1;" horiz-adv-x="629" 
d="M407 1413v-235h-184v235h184zM380 1005l19 -1005h-168l19 1005h130z" />
    <glyph glyph-name="cent" unicode="&#xa2;" horiz-adv-x="1158" 
d="M558 -13q-127 13 -218.5 84.5t-139 183t-47.5 243.5q0 128 45.5 240.5t137 187.5t222.5 88v186h88v-185q131 -8 228.5 -79.5t149.5 -200.5l-161 -63q-28 79 -84.5 128t-132.5 58v-717q77 9 133 57.5t80 125.5l155 -58q-45 -126 -141.5 -199.5t-226.5 -82.5v-195l-88 -2
v200zM558 854q-77 -13 -129.5 -65t-78 -128t-25.5 -163q0 -88 25.5 -163.5t78 -126t129.5 -63.5v709z" />
    <glyph glyph-name="sterling" unicode="&#xa3;" horiz-adv-x="1247" 
d="M1196 143v-143h-1034v156q74 24 134.5 68t95.5 101.5t35 117.5q0 41 -11 83t-32 102l-9 25h-206v143h170q-16 43 -27 104t-11 124q0 116 50.5 209.5t144.5 147.5t221 54q140 0 244.5 -83.5t153.5 -218.5l-134 -50q-37 99 -105.5 154t-158.5 55q-82 0 -144 -32.5
t-95.5 -93.5t-33.5 -145q0 -58 12 -117.5t31 -107.5h472v-143h-437l8 -24q19 -61 28.5 -100t9.5 -83q0 -108 -49.5 -182.5t-126.5 -120.5h804z" />
    <glyph glyph-name="currency" unicode="&#xa4;" horiz-adv-x="1390" 
d="M223 255l103 101q-47 59 -71 130.5t-24 145.5q0 75 24 146.5t71 131.5l-101 100l90 95l103 -104q60 47 132 71.5t147 24.5q74 0 145 -24t130 -71l103 101l92 -91l-103 -101q47 -60 71 -131t24 -147t-24 -147t-71 -132l103 -99l-91 -95l-104 104q-59 -47 -130.5 -71
t-146.5 -24t-146.5 24t-132.5 71l-102 -104zM567 322.5q62 -25.5 127 -25.5q66 0 127.5 25.5t109.5 74.5q49 49 74 110t25 127q0 65 -25 126t-74 109q-48 48 -109.5 72.5t-127.5 24.5q-65 0 -127 -25t-110 -73t-72.5 -109.5t-24.5 -127.5q0 -65 24.5 -126t71.5 -108
q49 -49 111 -74.5z" />
    <glyph glyph-name="yen" unicode="&#xa5;" horiz-adv-x="1448" 
d="M633 220h-347v138h347v177h-347v137h268l-456 741h213l411 -699l414 699h214l-455 -741h265v-137h-344v-177h344v-138h-344v-220h-183v220z" />
    <glyph glyph-name="brokenbar" unicode="&#xa6;" horiz-adv-x="650" 
d="M255 1475h140v-744h-140v744zM255 420h140v-727h-140v727z" />
    <glyph glyph-name="section" unicode="&#xa7;" horiz-adv-x="1166" 
d="M315 54q-116 70 -158 213l161 49q36 -103 103.5 -148.5t178.5 -45.5q73 0 131 18.5t91 53.5t33 82q0 50 -36 82.5t-89 51.5t-149 44q-123 31 -198.5 60.5t-129 88t-53.5 154.5q0 116 87 203q-86 71 -86 179q0 89 51.5 155t137.5 101t187 35q128 0 225.5 -49t147.5 -131
l-135 -79q-67 127 -244 127q-69 0 -121 -22.5t-79.5 -59.5t-27.5 -80q0 -47 34.5 -77t86.5 -48t145 -42q123 -31 201 -61t133 -90.5t55 -160.5q0 -118 -83 -201q83 -69 83 -180q0 -95 -57 -161t-150.5 -98.5t-201.5 -32.5q-158 0 -274 70zM833 574.5q22 34.5 22 78.5
q0 59 -38.5 97.5t-95.5 60.5t-155 50q-14 4 -59 17t-80 27q-42 -24 -63 -63t-21 -79q0 -56 38 -92.5t93.5 -57.5t151.5 -49q96 -27 144 -45q41 21 63 55.5z" />
    <glyph glyph-name="dieresis" unicode="&#xa8;" horiz-adv-x="844" 
d="M163 1413h144v-212h-144v212zM537 1413h144v-212h-144v212z" />
    <glyph glyph-name="copyright" unicode="&#xa9;" horiz-adv-x="1712" 
d="M484.5 75q-170.5 98 -270 265.5t-99.5 366.5q0 198 99.5 365.5t270 265.5t372.5 98q201 0 371 -98t269.5 -265.5t99.5 -365.5q0 -199 -99.5 -366.5t-269.5 -265.5t-371 -98q-202 0 -372.5 98zM1174 170.5q145 83.5 230.5 226t85.5 310.5t-85.5 310t-230.5 225.5
t-317 83.5q-173 0 -318.5 -83t-230.5 -225.5t-85 -310.5q0 -169 85 -311t230.5 -225.5t318.5 -83.5q172 0 317 83.5zM660 312q-91 61 -138.5 164.5t-47.5 228.5q0 119 45.5 223.5t136.5 168.5t220 64q124 0 218 -63t144 -183l-134 -52q-29 79 -89.5 125t-138.5 46
q-85 0 -144 -46t-87.5 -121t-28.5 -162q0 -89 28.5 -162.5t87 -118t145.5 -44.5q81 0 140 44.5t83 122.5l127 -49q-40 -117 -132 -182t-217 -65q-127 0 -218 61z" />
    <glyph glyph-name="ordfeminine" unicode="&#xaa;" horiz-adv-x="1012" 
d="M305.5 731.5q-55.5 26.5 -87.5 75t-32 112.5q0 107 77 160.5t212 53.5h202q0 24 -5 47q-15 153 -180 153q-66 0 -113.5 -29.5t-85.5 -82.5l-85 57q59 81 125.5 116.5t160.5 35.5q135 0 210 -75.5t75 -206.5v-430h-96l-2 118q-48 -66 -110.5 -98.5t-142.5 -32.5
q-67 0 -122.5 26.5zM573 842q57 39 90 103q11 47 14 93h-195q-90 0 -136.5 -30.5t-46.5 -88.5q0 -50 42.5 -83t104.5 -33q70 0 127 39z" />
    <glyph glyph-name="guillemotleft" unicode="&#xab;" horiz-adv-x="1004" 
d="M55 511l406 346v-150l-231 -196l231 -196v-150zM450 511l407 346v-150l-232 -196l232 -196v-150z" />
    <glyph glyph-name="logicalnot" unicode="&#xac;" horiz-adv-x="1322" 
d="M909 645h-757v152h919v-506h-162v354z" />
    <glyph glyph-name="uni00AD" unicode="&#xad;" horiz-adv-x="1019" 
d="M160 680h698v-130h-698v130z" />
    <glyph glyph-name="registered" unicode="&#xae;" horiz-adv-x="1712" 
d="M484.5 75q-170.5 98 -270 265.5t-99.5 366.5q0 198 99.5 365.5t270 265.5t372.5 98q201 0 371 -98t269.5 -265.5t99.5 -365.5q0 -199 -99.5 -366.5t-269.5 -265.5t-371 -98q-202 0 -372.5 98zM1174 170.5q145 83.5 230.5 226t85.5 310.5t-85.5 310t-230.5 225.5
t-317 83.5q-173 0 -318.5 -83t-230.5 -225.5t-85 -310.5q0 -169 85 -311t230.5 -225.5t318.5 -83.5q172 0 317 83.5zM620 1137h253q87 0 153.5 -30.5t102.5 -86t36 -129.5q0 -81 -45.5 -139.5t-126.5 -82.5l236 -393h-131l-218 381q-32 -2 -51 -2h-95v-379h-114v861z
M883 750q81 1 125 38t44 102q0 68 -47 106t-131 38h-140v-284h149z" />
    <glyph glyph-name="macron" unicode="&#xaf;" horiz-adv-x="870" 
d="M159 1298h552v-103h-552v103z" />
    <glyph glyph-name="degree" unicode="&#xb0;" horiz-adv-x="939" 
d="M325 890q-67 39 -106 105.5t-39 145.5q0 78 39 144.5t106 105.5t145 39t144 -39t105 -105.5t39 -144.5q0 -79 -39 -145.5t-105 -105.5t-144 -39t-145 39zM558 990q40 23 63 63t23 88q0 47 -23 87t-63 63t-88 23t-88 -23t-63 -63t-23 -87q0 -48 23 -88t63 -63t88 -23
t88 23z" />
    <glyph glyph-name="plusminus" unicode="&#xb1;" horiz-adv-x="1341" 
d="M607 642h-470v130h470v453h130v-453h469v-130h-469v-454h-130v454zM137 0h1061v-130h-1061v130z" />
    <glyph glyph-name="uni00B2" unicode="&#xb2;" horiz-adv-x="714" 
d="M662 1104v-105h-627v96q125 76 222 148t171 166t74 194q0 67 -37.5 108t-109.5 41q-84 0 -126 -57.5t-44 -145.5l-113 8q0 82 33.5 150.5t97.5 109t152 40.5q77 0 136.5 -30.5t93 -88.5t33.5 -138q0 -97 -58.5 -191t-148.5 -171t-192 -134h443z" />
    <glyph glyph-name="uni00B3" unicode="&#xb3;" horiz-adv-x="713" 
d="M191.5 1016q-69.5 31 -110 92t-40.5 147l111 8q0 -81 54.5 -126.5t141.5 -45.5q82 0 137.5 42t55.5 119q0 88 -68 119.5t-166 30.5v78q188 0 188 125q0 68 -42 104t-106 36q-69 0 -112.5 -38.5t-44.5 -102.5l-109 7q0 74 35 129t95 84t133 29q71 0 131 -27.5t96 -78.5
t36 -118q0 -63 -34 -107t-97 -70q81 -18 128.5 -74.5t47.5 -136.5t-41 -138t-110.5 -88t-153.5 -30q-86 0 -155.5 31z" />
    <glyph glyph-name="acute" unicode="&#xb4;" horiz-adv-x="513" 
d="M281 1413h181l-275 -287h-127z" />
    <glyph glyph-name="uni00B5" unicode="&#xb5;" horiz-adv-x="1293" 
d="M253 999h168v-591q0 -126 59 -197t171 -71q121 0 190.5 72.5t69.5 210.5v576h168v-999h-168v152q-49 -83 -131 -126t-176 -43q-145 0 -214 94v-418h-137v1340z" />
    <glyph glyph-name="paragraph" unicode="&#xb6;" horiz-adv-x="1277" 
d="M560 623q-119 0 -223 47.5t-167 137.5t-63 210t63 210t167 137.5t223 47.5h120v-1659h-120v869zM901 1413h122v-1659h-122v1659z" />
    <glyph glyph-name="periodcentered" unicode="&#xb7;" horiz-adv-x="662" 
d="M260.5 615q-31.5 19 -49.5 50.5t-18 69.5t18 70t49.5 50t69.5 18q39 0 71 -18t50.5 -49.5t18.5 -70.5q0 -37 -18.5 -69t-51 -51t-70.5 -19t-69.5 19z" />
    <glyph glyph-name="cedilla" unicode="&#xb8;" horiz-adv-x="590" 
d="M153.5 -479.5q-55.5 38.5 -72.5 110.5l95 40q12 -38 41 -63.5t68 -25.5q50 0 79.5 27t29.5 74q0 53 -47.5 86.5t-129.5 37.5l-81 1l115 191h103l-80 -121q37 -3 61 -10q78 -18 119.5 -64.5t41.5 -115.5q0 -59 -27.5 -106t-76 -73.5t-111.5 -26.5q-72 0 -127.5 38.5z" />
    <glyph glyph-name="uni00B9" unicode="&#xb9;" horiz-adv-x="458" 
d="M324 1847v-848h-115v623h-205v90h128q82 0 82 73v62h110z" />
    <glyph glyph-name="ordmasculine" unicode="&#xba;" horiz-adv-x="1008" 
d="M324.5 762q-79.5 48 -124 130t-44.5 181q0 98 44.5 179.5t124 129.5t179.5 48q99 0 178 -48t123.5 -129.5t44.5 -179.5q0 -99 -44.5 -181t-123.5 -130t-178 -48q-100 0 -179.5 48zM627 851q51 33 77.5 91t26.5 131t-26.5 131t-77.5 91t-123 33q-73 0 -125 -33t-78.5 -91
t-26.5 -131t26.5 -131t78.5 -91t125 -33q72 0 123 33z" />
    <glyph glyph-name="guillemotright" unicode="&#xbb;" horiz-adv-x="1004" 
d="M147 315l232 196l-232 196v150l407 -346l-407 -346v150zM543 315l231 196l-231 196v150l406 -346l-406 -346v150z" />
    <glyph glyph-name="onequarter" unicode="&#xbc;" horiz-adv-x="1451" 
d="M324 1421v-848h-115v623h-205v90h128q82 0 82 73v62h110zM954 1413h122l-813 -1413h-122zM1418 309v-106h-136v-203h-115v203h-408v69l423 576h100v-539h136zM1167 309v363l-258 -363h258z" />
    <glyph glyph-name="onehalf" unicode="&#xbd;" horiz-adv-x="1473" 
d="M324 1421v-848h-115v623h-205v90h128q82 0 82 73v62h110zM954 1413h122l-813 -1413h-122zM1421 105v-105h-627v96q125 76 222 148t171 166t74 194q0 67 -37.5 108t-109.5 41q-84 0 -126 -57.5t-44 -145.5l-113 8q0 82 33.5 150.5t97.5 109t152 40.5q77 0 136.5 -30.5
t93 -88.5t33.5 -138q0 -97 -58.5 -191t-148.5 -171t-192 -134h443z" />
    <glyph glyph-name="threequarters" unicode="&#xbe;" horiz-adv-x="1706" 
d="M191.5 594q-69.5 31 -110 92t-40.5 147l111 8q0 -81 54.5 -126.5t141.5 -45.5q82 0 137.5 42t55.5 119q0 88 -68 119.5t-166 30.5v78q188 0 188 125q0 68 -42 104t-106 36q-69 0 -112.5 -38.5t-44.5 -102.5l-109 7q0 74 35 129t95 84t133 29q71 0 131 -27.5t96 -78.5
t36 -118q0 -63 -34 -107t-97 -70q81 -18 128.5 -74.5t47.5 -136.5t-41 -138t-110.5 -88t-153.5 -30q-86 0 -155.5 31zM1209 1413h122l-813 -1413h-122zM1673 309v-106h-136v-203h-115v203h-408v69l423 576h100v-539h136zM1422 309v363l-258 -363h258z" />
    <glyph glyph-name="questiondown" unicode="&#xbf;" horiz-adv-x="1036" 
d="M616 1178h-184v235h184v-235zM598 850q0 -75 -25.5 -125t-61.5 -79t-97 -64q-55 -31 -87.5 -55.5t-54.5 -65t-22 -100.5q0 -116 73.5 -176t205.5 -60q134 0 204 69.5t70 197.5h150q0 -126 -52 -218.5t-146.5 -141.5t-219.5 -49q-124 0 -222.5 44t-155 130t-56.5 207
q0 98 32 162t76 99.5t114 76.5q47 27 72 45t42 43.5t17 60.5v158h144v-159z" />
    <glyph glyph-name="Agrave" unicode="&#xc0;" horiz-adv-x="1315" 
d="M588 1413h140l538 -1413h-191l-118 330h-595l-120 -330h-192zM902 481l-243 680l-242 -680h485zM333 1827h182l221 -300h-127z" />
    <glyph glyph-name="Aacute" unicode="&#xc1;" horiz-adv-x="1315" 
d="M588 1413h140l538 -1413h-191l-118 330h-595l-120 -330h-192zM902 481l-243 680l-242 -680h485zM794 1827h181l-275 -287h-127z" />
    <glyph glyph-name="Acircumflex" unicode="&#xc2;" horiz-adv-x="1315" 
d="M588 1413h140l538 -1413h-191l-118 330h-595l-120 -330h-192zM902 481l-243 680l-242 -680h485zM655 1852l307 -330h-136l-171 182l-169 -182h-137z" />
    <glyph glyph-name="Atilde" unicode="&#xc3;" horiz-adv-x="1315" 
d="M588 1413h140l538 -1413h-191l-118 330h-595l-120 -330h-192zM902 481l-243 680l-242 -680h485zM717.5 1562q-31.5 14 -52.5 34t-47 51q-28 34 -48.5 50.5t-48.5 16.5q-42 0 -66.5 -40t-24.5 -113h-100q0 123 52 191.5t143 68.5q55 0 90.5 -25t74.5 -71q30 -35 52 -52.5
t52 -17.5q37 0 60.5 42.5t23.5 115.5h103q0 -124 -51 -194.5t-138 -70.5q-43 0 -74.5 14z" />
    <glyph glyph-name="Adieresis" unicode="&#xc4;" horiz-adv-x="1315" 
d="M588 1413h140l538 -1413h-191l-118 330h-595l-120 -330h-192zM902 481l-243 680l-242 -680h485zM396 1827h144v-212h-144v212zM770 1827h144v-212h-144v212z" />
    <glyph glyph-name="Aring" unicode="&#xc5;" horiz-adv-x="1315" 
d="M588 1413h140l538 -1413h-191l-118 330h-595l-120 -330h-192zM902 481l-243 680l-242 -680h485zM552 1528q-47 28 -74.5 75.5t-27.5 103.5t27.5 103t74.5 74.5t103 27.5q55 0 103 -27.5t76 -74.5t28 -103q0 -57 -27.5 -104.5t-75 -75t-104.5 -27.5q-56 0 -103 28z
M736 1626.5q32 32.5 32 81.5q0 47 -31.5 78.5t-81.5 31.5q-48 0 -79.5 -31.5t-31.5 -78.5q0 -49 32 -81.5t79 -32.5q49 0 81 32.5z" />
    <glyph glyph-name="AE" unicode="&#xc6;" horiz-adv-x="1895" 
d="M584 1413h1186v-156h-746v-474h651v-149h-651v-474h746v-160h-922v330h-489l-117 -330h-192zM848 468v796h-152l-282 -796h434z" />
    <glyph glyph-name="Ccedilla" unicode="&#xc7;" horiz-adv-x="1447" 
d="M1157 101q-134 -99 -316 -115l-71 -108q37 -3 61 -10q78 -18 119.5 -64.5t41.5 -115.5q0 -59 -27.5 -106t-76 -73.5t-111.5 -26.5q-72 0 -127.5 38.5t-72.5 110.5l95 40q12 -38 41 -63.5t68 -25.5q50 0 79.5 27t29.5 74q0 53 -47.5 86.5t-129.5 37.5l-81 1l106 176
q-201 7 -341 103t-210.5 257.5t-70.5 363.5q0 209 74.5 372.5t223 257.5t362.5 94q209 0 359 -99t230 -291l-165 -66q-48 149 -155.5 218.5t-270.5 69.5q-159 0 -267.5 -69t-162 -192.5t-53.5 -287.5q0 -165 51 -291.5t158.5 -199.5t270.5 -73q159 0 264.5 70t168.5 221
l163 -67q-76 -175 -210 -274z" />
    <glyph glyph-name="Egrave" unicode="&#xc8;" horiz-adv-x="1264" 
d="M210 1413h929v-162h-753v-461h685v-163h-685v-460h753v-167h-929v1413zM352 1827h182l221 -300h-127z" />
    <glyph glyph-name="Eacute" unicode="&#xc9;" horiz-adv-x="1264" 
d="M210 1413h929v-162h-753v-461h685v-163h-685v-460h753v-167h-929v1413zM813 1827h181l-275 -287h-127z" />
    <glyph glyph-name="Ecircumflex" unicode="&#xca;" horiz-adv-x="1264" 
d="M210 1413h929v-162h-753v-461h685v-163h-685v-460h753v-167h-929v1413zM674 1852l307 -330h-136l-171 182l-169 -182h-137z" />
    <glyph glyph-name="Edieresis" unicode="&#xcb;" horiz-adv-x="1264" 
d="M210 1413h929v-162h-753v-461h685v-163h-685v-460h753v-167h-929v1413zM416 1827h144v-212h-144v212zM790 1827h144v-212h-144v212z" />
    <glyph glyph-name="Igrave" unicode="&#xcc;" horiz-adv-x="597" 
d="M210 1413h176v-1413h-176v1413zM-26 1827h182l221 -300h-127z" />
    <glyph glyph-name="Iacute" unicode="&#xcd;" horiz-adv-x="597" 
d="M210 1413h176v-1413h-176v1413zM435 1827h181l-275 -287h-127z" />
    <glyph glyph-name="Icircumflex" unicode="&#xce;" horiz-adv-x="597" 
d="M210 1413h176v-1413h-176v1413zM296 1852l307 -330h-136l-171 182l-169 -182h-137z" />
    <glyph glyph-name="Idieresis" unicode="&#xcf;" horiz-adv-x="597" 
d="M210 1413h176v-1413h-176v1413zM37 1827h144v-212h-144v212zM411 1827h144v-212h-144v212z" />
    <glyph glyph-name="Eth" unicode="&#xd0;" horiz-adv-x="1440" 
d="M998 1330q162 -83 245 -243.5t83 -390.5q0 -220 -84.5 -376t-247.5 -238t-395 -82h-389v649h-149v116h149v648h391q235 0 397 -83zM1003.5 294q146.5 132 146.5 409q0 281 -134 414.5t-418 133.5h-212v-486h310v-116h-310v-487h196q275 0 421.5 132z" />
    <glyph glyph-name="Ntilde" unicode="&#xd1;" horiz-adv-x="1437" 
d="M1227 1413v-1413h-182l-665 1127v-1127h-170v1413h180l667 -1124v1124h170zM779.5 1562q-31.5 14 -52.5 34t-47 51q-28 34 -48.5 50.5t-48.5 16.5q-42 0 -66.5 -40t-24.5 -113h-100q0 123 52 191.5t143 68.5q55 0 90.5 -25t74.5 -71q30 -35 52 -52.5t52 -17.5
q37 0 60.5 42.5t23.5 115.5h103q0 -124 -51 -194.5t-138 -70.5q-43 0 -74.5 14z" />
    <glyph glyph-name="Ograve" unicode="&#xd2;" horiz-adv-x="1548" 
d="M409 81q-148 98 -221 262.5t-73 363.5t73 363t221 262t364 98q217 0 365.5 -98t222 -262t73.5 -363t-73.5 -363.5t-222 -262.5t-365.5 -98q-216 0 -364 98zM1041.5 216q106.5 76 156.5 203.5t50 287.5q0 159 -50 286.5t-156.5 203.5t-268.5 76q-161 0 -267 -76
t-156 -203.5t-50 -286.5t50 -287t156 -204t267 -76q162 0 268.5 76zM450 1827h182l221 -300h-127z" />
    <glyph glyph-name="Oacute" unicode="&#xd3;" horiz-adv-x="1548" 
d="M409 81q-148 98 -221 262.5t-73 363.5t73 363t221 262t364 98q217 0 365.5 -98t222 -262t73.5 -363t-73.5 -363.5t-222 -262.5t-365.5 -98q-216 0 -364 98zM1041.5 216q106.5 76 156.5 203.5t50 287.5q0 159 -50 286.5t-156.5 203.5t-268.5 76q-161 0 -267 -76
t-156 -203.5t-50 -286.5t50 -287t156 -204t267 -76q162 0 268.5 76zM911 1827h181l-275 -287h-127z" />
    <glyph glyph-name="Ocircumflex" unicode="&#xd4;" horiz-adv-x="1548" 
d="M409 81q-148 98 -221 262.5t-73 363.5t73 363t221 262t364 98q217 0 365.5 -98t222 -262t73.5 -363t-73.5 -363.5t-222 -262.5t-365.5 -98q-216 0 -364 98zM1041.5 216q106.5 76 156.5 203.5t50 287.5q0 159 -50 286.5t-156.5 203.5t-268.5 76q-161 0 -267 -76
t-156 -203.5t-50 -286.5t50 -287t156 -204t267 -76q162 0 268.5 76zM772 1852l307 -330h-136l-171 182l-169 -182h-137z" />
    <glyph glyph-name="Otilde" unicode="&#xd5;" horiz-adv-x="1548" 
d="M409 81q-148 98 -221 262.5t-73 363.5t73 363t221 262t364 98q217 0 365.5 -98t222 -262t73.5 -363t-73.5 -363.5t-222 -262.5t-365.5 -98q-216 0 -364 98zM1041.5 216q106.5 76 156.5 203.5t50 287.5q0 159 -50 286.5t-156.5 203.5t-268.5 76q-161 0 -267 -76
t-156 -203.5t-50 -286.5t50 -287t156 -204t267 -76q162 0 268.5 76zM834.5 1562q-31.5 14 -52.5 34t-47 51q-28 34 -48.5 50.5t-48.5 16.5q-42 0 -66.5 -40t-24.5 -113h-100q0 123 52 191.5t143 68.5q55 0 90.5 -25t74.5 -71q30 -35 52 -52.5t52 -17.5q37 0 60.5 42.5
t23.5 115.5h103q0 -124 -51 -194.5t-138 -70.5q-43 0 -74.5 14z" />
    <glyph glyph-name="Odieresis" unicode="&#xd6;" horiz-adv-x="1548" 
d="M409 81q-148 98 -221 262.5t-73 363.5t73 363t221 262t364 98q217 0 365.5 -98t222 -262t73.5 -363t-73.5 -363.5t-222 -262.5t-365.5 -98q-216 0 -364 98zM1041.5 216q106.5 76 156.5 203.5t50 287.5q0 159 -50 286.5t-156.5 203.5t-268.5 76q-161 0 -267 -76
t-156 -203.5t-50 -286.5t50 -287t156 -204t267 -76q162 0 268.5 76zM513 1827h144v-212h-144v212zM887 1827h144v-212h-144v212z" />
    <glyph glyph-name="multiply" unicode="&#xd7;" horiz-adv-x="1096" 
d="M548 533l-317 -317l-92 92l317 317l-317 318l92 92l317 -318l317 317l92 -92l-317 -317l318 -317l-92 -92z" />
    <glyph glyph-name="Oslash" unicode="&#xd8;" horiz-adv-x="1548" 
d="M1374 1039.5q60 -152.5 60 -332.5q0 -199 -73.5 -363.5t-222 -262.5t-365.5 -98q-190 0 -333 80l-39 -63h-129l77 125q-116 99 -175 251t-59 331q0 199 73 363t221 262t364 98q190 0 332 -78l38 61h129l-76 -123q118 -98 178 -250.5zM334.5 462q34.5 -112 105.5 -189
l579 939q-103 61 -246 61q-161 0 -267 -76t-156 -203.5t-50 -286.5q0 -133 34.5 -245zM1041.5 216q106.5 76 156.5 203.5t50 287.5q0 134 -35.5 246.5t-107.5 188.5l-579 -939q104 -63 247 -63q162 0 268.5 76z" />
    <glyph glyph-name="Ugrave" unicode="&#xd9;" horiz-adv-x="1394" 
d="M308.5 128q-128.5 145 -128.5 409v876h176v-857q0 -200 80 -301t260 -101q181 0 261.5 101.5t80.5 304.5v853h176v-866q0 -269 -129 -416.5t-389 -147.5q-259 0 -387.5 145zM372 1827h182l221 -300h-127z" />
    <glyph glyph-name="Uacute" unicode="&#xda;" horiz-adv-x="1394" 
d="M308.5 128q-128.5 145 -128.5 409v876h176v-857q0 -200 80 -301t260 -101q181 0 261.5 101.5t80.5 304.5v853h176v-866q0 -269 -129 -416.5t-389 -147.5q-259 0 -387.5 145zM833 1827h181l-275 -287h-127z" />
    <glyph glyph-name="Ucircumflex" unicode="&#xdb;" horiz-adv-x="1394" 
d="M308.5 128q-128.5 145 -128.5 409v876h176v-857q0 -200 80 -301t260 -101q181 0 261.5 101.5t80.5 304.5v853h176v-866q0 -269 -129 -416.5t-389 -147.5q-259 0 -387.5 145zM694 1852l307 -330h-136l-171 182l-169 -182h-137z" />
    <glyph glyph-name="Udieresis" unicode="&#xdc;" horiz-adv-x="1394" 
d="M308.5 128q-128.5 145 -128.5 409v876h176v-857q0 -200 80 -301t260 -101q181 0 261.5 101.5t80.5 304.5v853h176v-866q0 -269 -129 -416.5t-389 -147.5q-259 0 -387.5 145zM435 1827h144v-212h-144v212zM809 1827h144v-212h-144v212z" />
    <glyph glyph-name="Yacute" unicode="&#xdd;" horiz-adv-x="1325" 
d="M571 543l-535 870h213l412 -699l414 699h214l-535 -870v-543h-183v543zM798 1827h181l-275 -287h-127z" />
    <glyph glyph-name="Thorn" unicode="&#xde;" horiz-adv-x="1177" 
d="M210 1413h176v-240h230q143 0 252.5 -48t170.5 -140t61 -218t-60 -216t-169.5 -137t-254.5 -47h-230v-367h-176v1413zM616 532q155 0 232 60t77 175t-78.5 178t-230.5 63h-230v-476h230z" />
    <glyph glyph-name="germandbls" unicode="&#xdf;" horiz-adv-x="1155" 
d="M579.5 -6q-51.5 11 -111.5 31l50 145q95 -44 167 -44q88 0 139 53t51 144q0 60 -20.5 103t-50 72t-79.5 67l-18 13q-58 45 -90 88.5t-32 106.5q0 40 13 70t33.5 53t55.5 54q43 37 63.5 75t20.5 88q0 81 -48 128t-130 47q-146 0 -202 -141.5t-56 -338.5v-808h-167v808
q0 200 48.5 340t141.5 212t226 72q103 0 182.5 -41.5t124 -113.5t44.5 -162q0 -77 -30 -131.5t-78 -101.5l-20 -19q-35 -34 -49.5 -52.5t-14.5 -37.5q0 -23 22 -45.5t73 -61.5l17 -13q54 -41 93.5 -81.5t67 -102t27.5 -142.5q0 -101 -44 -179t-125.5 -121.5t-190.5 -43.5
q-52 0 -103.5 11z" />
    <glyph glyph-name="agrave" unicode="&#xe0;" 
d="M732.5 966.5q92.5 -49.5 140.5 -141.5t48 -216v-609h-141l-11 178q-51 -94 -145 -144.5t-201 -50.5q-102 0 -181.5 37.5t-124.5 108t-45 167.5q0 149 108.5 217.5t303.5 68.5h283q-1 100 -25 162.5t-79.5 93t-149.5 30.5q-171 0 -272 -156l-130 94q76 104 172 157t228 53
q129 0 221.5 -49.5zM659.5 201.5q81.5 73.5 107.5 191.5v65h-273q-123 0 -185.5 -45t-62.5 -123q0 -74 55 -118t155 -44q122 0 203.5 73.5zM185 1413h182l221 -300h-127z" />
    <glyph glyph-name="aacute" unicode="&#xe1;" 
d="M732.5 966.5q92.5 -49.5 140.5 -141.5t48 -216v-609h-141l-11 178q-51 -94 -145 -144.5t-201 -50.5q-102 0 -181.5 37.5t-124.5 108t-45 167.5q0 149 108.5 217.5t303.5 68.5h283q-1 100 -25 162.5t-79.5 93t-149.5 30.5q-171 0 -272 -156l-130 94q76 104 172 157t228 53
q129 0 221.5 -49.5zM659.5 201.5q81.5 73.5 107.5 191.5v65h-273q-123 0 -185.5 -45t-62.5 -123q0 -74 55 -118t155 -44q122 0 203.5 73.5zM646 1413h181l-275 -287h-127z" />
    <glyph glyph-name="acircumflex" unicode="&#xe2;" 
d="M732.5 966.5q92.5 -49.5 140.5 -141.5t48 -216v-609h-141l-11 178q-51 -94 -145 -144.5t-201 -50.5q-102 0 -181.5 37.5t-124.5 108t-45 167.5q0 149 108.5 217.5t303.5 68.5h283q-1 100 -25 162.5t-79.5 93t-149.5 30.5q-171 0 -272 -156l-130 94q76 104 172 157t228 53
q129 0 221.5 -49.5zM659.5 201.5q81.5 73.5 107.5 191.5v65h-273q-123 0 -185.5 -45t-62.5 -123q0 -74 55 -118t155 -44q122 0 203.5 73.5zM506 1438l307 -330h-136l-171 182l-169 -182h-137z" />
    <glyph glyph-name="atilde" unicode="&#xe3;" 
d="M732.5 966.5q92.5 -49.5 140.5 -141.5t48 -216v-609h-141l-11 178q-51 -94 -145 -144.5t-201 -50.5q-102 0 -181.5 37.5t-124.5 108t-45 167.5q0 149 108.5 217.5t303.5 68.5h283q-1 100 -25 162.5t-79.5 93t-149.5 30.5q-171 0 -272 -156l-130 94q76 104 172 157t228 53
q129 0 221.5 -49.5zM659.5 201.5q81.5 73.5 107.5 191.5v65h-273q-123 0 -185.5 -45t-62.5 -123q0 -74 55 -118t155 -44q122 0 203.5 73.5zM568.5 1148q-31.5 14 -52.5 34t-47 51q-28 34 -48.5 50.5t-48.5 16.5q-42 0 -66.5 -40t-24.5 -113h-100q0 123 52 191.5t143 68.5
q55 0 90.5 -25t74.5 -71q30 -35 52 -52.5t52 -17.5q37 0 60.5 42.5t23.5 115.5h103q0 -124 -51 -194.5t-138 -70.5q-43 0 -74.5 14z" />
    <glyph glyph-name="adieresis" unicode="&#xe4;" 
d="M732.5 966.5q92.5 -49.5 140.5 -141.5t48 -216v-609h-141l-11 178q-51 -94 -145 -144.5t-201 -50.5q-102 0 -181.5 37.5t-124.5 108t-45 167.5q0 149 108.5 217.5t303.5 68.5h283q-1 100 -25 162.5t-79.5 93t-149.5 30.5q-171 0 -272 -156l-130 94q76 104 172 157t228 53
q129 0 221.5 -49.5zM659.5 201.5q81.5 73.5 107.5 191.5v65h-273q-123 0 -185.5 -45t-62.5 -123q0 -74 55 -118t155 -44q122 0 203.5 73.5zM248 1413h144v-212h-144v212zM622 1413h144v-212h-144v212z" />
    <glyph glyph-name="aring" unicode="&#xe5;" 
d="M732.5 966.5q92.5 -49.5 140.5 -141.5t48 -216v-609h-141l-11 178q-51 -94 -145 -144.5t-201 -50.5q-102 0 -181.5 37.5t-124.5 108t-45 167.5q0 149 108.5 217.5t303.5 68.5h283q-1 100 -25 162.5t-79.5 93t-149.5 30.5q-171 0 -272 -156l-130 94q76 104 172 157t228 53
q129 0 221.5 -49.5zM659.5 201.5q81.5 73.5 107.5 191.5v65h-273q-123 0 -185.5 -45t-62.5 -123q0 -74 55 -118t155 -44q122 0 203.5 73.5zM403 1114q-47 28 -74.5 75.5t-27.5 103.5t27.5 103t74.5 74.5t103 27.5q55 0 103 -27.5t76 -74.5t28 -103q0 -57 -27.5 -104.5
t-75 -75t-104.5 -27.5q-56 0 -103 28zM587 1212.5q32 32.5 32 81.5q0 47 -31.5 78.5t-81.5 31.5q-48 0 -79.5 -31.5t-31.5 -78.5q0 -49 32 -81.5t79 -32.5q49 0 81 32.5z" />
    <glyph glyph-name="ae" unicode="&#xe6;" horiz-adv-x="1719" 
d="M240 20.5q-79 37.5 -124.5 106t-45.5 159.5q0 152 108 219.5t305 67.5h281q0 38 -7 80q-11 110 -73 163t-180 53q-87 0 -155 -38.5t-116 -107.5l-120 87q75 105 170.5 154.5t226.5 49.5t220.5 -59t127.5 -169q52 106 139 165.5t205 59.5q155 0 252.5 -70t140 -179.5
t42.5 -234.5q0 -19 -3.5 -45.5t-5.5 -32.5h-703q6 -144 77.5 -226.5t202.5 -82.5q91 0 154.5 26.5t125.5 90.5l119 -103q-87 -89 -181 -127.5t-217 -38.5q-134 0 -229.5 57t-143.5 159q-71 -107 -168.5 -164t-249.5 -57q-96 0 -175 37.5zM1469 573q1 35 -5 69
q-9 61 -41.5 112.5t-91.5 82.5t-142 31q-80 0 -139.5 -39.5t-91.5 -106.5t-34 -149h545zM638 162q82 52 143 157q-15 60 -17 130h-272q-128 0 -195.5 -41t-67.5 -121q0 -52 26 -92t74 -62.5t112 -22.5q115 0 197 52z" />
    <glyph glyph-name="ccedilla" unicode="&#xe7;" horiz-adv-x="1012" 
d="M698 187.5q66 50.5 93 136.5l154 -58q-43 -124 -137 -197t-221 -84l-71 -107q37 -3 61 -10q78 -18 119.5 -64.5t41.5 -115.5q0 -59 -27.5 -106t-76 -73.5t-111.5 -26.5q-72 0 -127.5 38.5t-72.5 110.5l95 40q12 -38 41 -63.5t68 -25.5q50 0 79.5 27t29.5 74
q0 53 -47.5 86.5t-129.5 37.5l-81 1l107 178q-127 15 -217.5 86.5t-137 183t-46.5 242.5q0 136 52 254.5t155.5 191t251.5 72.5q142 0 249.5 -71.5t162.5 -209.5l-161 -63q-30 88 -96.5 139t-154.5 51q-95 0 -160 -50.5t-96 -133.5t-31 -180q0 -98 31 -180t95.5 -131.5
t160.5 -49.5q89 0 155 50.5z" />
    <glyph glyph-name="egrave" unicode="&#xe8;" horiz-adv-x="1072" 
d="M303 51q-108 68 -163 184.5t-55 259.5q0 141 53 260t157.5 190t251.5 71q157 0 256.5 -72t143.5 -180.5t44 -222.5q0 -27 -2.5 -53.5t-5.5 -38.5h-719q10 -147 86.5 -229.5t214.5 -82.5q84 0 149 27.5t126 92.5l118 -103q-83 -89 -177.5 -130t-216.5 -41q-153 0 -261 68z
M823 573q0 43 -4 63q-9 65 -42.5 118.5t-92 86t-138.5 32.5q-123 0 -195 -81.5t-87 -218.5h559zM209 1413h182l221 -300h-127z" />
    <glyph glyph-name="eacute" unicode="&#xe9;" horiz-adv-x="1072" 
d="M303 51q-108 68 -163 184.5t-55 259.5q0 141 53 260t157.5 190t251.5 71q157 0 256.5 -72t143.5 -180.5t44 -222.5q0 -27 -2.5 -53.5t-5.5 -38.5h-719q10 -147 86.5 -229.5t214.5 -82.5q84 0 149 27.5t126 92.5l118 -103q-83 -89 -177.5 -130t-216.5 -41q-153 0 -261 68z
M823 573q0 43 -4 63q-9 65 -42.5 118.5t-92 86t-138.5 32.5q-123 0 -195 -81.5t-87 -218.5h559zM670 1413h181l-275 -287h-127z" />
    <glyph glyph-name="ecircumflex" unicode="&#xea;" horiz-adv-x="1072" 
d="M303 51q-108 68 -163 184.5t-55 259.5q0 141 53 260t157.5 190t251.5 71q157 0 256.5 -72t143.5 -180.5t44 -222.5q0 -27 -2.5 -53.5t-5.5 -38.5h-719q10 -147 86.5 -229.5t214.5 -82.5q84 0 149 27.5t126 92.5l118 -103q-83 -89 -177.5 -130t-216.5 -41q-153 0 -261 68z
M823 573q0 43 -4 63q-9 65 -42.5 118.5t-92 86t-138.5 32.5q-123 0 -195 -81.5t-87 -218.5h559zM531 1438l307 -330h-136l-171 182l-169 -182h-137z" />
    <glyph glyph-name="edieresis" unicode="&#xeb;" horiz-adv-x="1072" 
d="M303 51q-108 68 -163 184.5t-55 259.5q0 141 53 260t157.5 190t251.5 71q157 0 256.5 -72t143.5 -180.5t44 -222.5q0 -27 -2.5 -53.5t-5.5 -38.5h-719q10 -147 86.5 -229.5t214.5 -82.5q84 0 149 27.5t126 92.5l118 -103q-83 -89 -177.5 -130t-216.5 -41q-153 0 -261 68z
M823 573q0 43 -4 63q-9 65 -42.5 118.5t-92 86t-138.5 32.5q-123 0 -195 -81.5t-87 -218.5h559zM272 1413h144v-212h-144v212zM646 1413h144v-212h-144v212z" />
    <glyph glyph-name="igrave" unicode="&#xec;" horiz-adv-x="505" 
d="M168 999h169v-999h-169v999zM-71 1413h182l221 -300h-127z" />
    <glyph glyph-name="iacute" unicode="&#xed;" horiz-adv-x="505" 
d="M168 999h169v-999h-169v999zM390 1413h181l-275 -287h-127z" />
    <glyph glyph-name="icircumflex" unicode="&#xee;" horiz-adv-x="505" 
d="M168 999h169v-999h-169v999zM251 1438l307 -330h-136l-171 182l-169 -182h-137z" />
    <glyph glyph-name="idieresis" unicode="&#xef;" horiz-adv-x="505" 
d="M168 999h169v-999h-169v999zM-8 1413h144v-212h-144v212zM366 1413h144v-212h-144v212z" />
    <glyph glyph-name="eth" unicode="&#xf0;" horiz-adv-x="1122" 
d="M311.5 48.5q-112.5 65.5 -177 175.5t-64.5 237q0 129 66 235t178.5 167t245.5 61q66 0 120 -39l-151 249l-131 -116h-124l216 177l-138 218h187l79 -130l162 130h122l-245 -190l322 -523q36 -59 54 -118.5t18 -125.5q0 -129 -66 -237.5t-178.5 -172t-245.5 -63.5
q-137 0 -249.5 65.5zM720 190q73 42 116 113.5t43 156.5q0 84 -43 155.5t-116.5 113.5t-159.5 42t-159 -42t-116 -113.5t-43 -155.5t43 -156t116 -114t159 -42q87 0 160 42z" />
    <glyph glyph-name="ntilde" unicode="&#xf1;" horiz-adv-x="1137" 
d="M168 999h169v-152q50 83 131 126t175 43q117 0 195.5 -52.5t117 -141.5t40.5 -200v-622h-169v591q0 126 -59 197t-171 71q-122 0 -191 -72.5t-69 -210.5v-576h-169v999zM635.5 1148q-31.5 14 -52.5 34t-47 51q-28 34 -48.5 50.5t-48.5 16.5q-42 0 -66.5 -40t-24.5 -113
h-100q0 123 52 191.5t143 68.5q55 0 90.5 -25t74.5 -71q30 -35 52 -52.5t52 -17.5q37 0 60.5 42.5t23.5 115.5h103q0 -124 -51 -194.5t-138 -70.5q-43 0 -74.5 14z" />
    <glyph glyph-name="ograve" unicode="&#xf2;" horiz-adv-x="1145" 
d="M316 52.5q-112 69.5 -174.5 188t-62.5 261.5q0 141 62.5 259t174.5 186.5t255 68.5t256 -68.5t176 -186.5t63 -259q0 -142 -63 -261t-176 -188.5t-256 -69.5t-255 69.5zM743 180q72 50 109.5 134.5t37.5 187.5q0 102 -37.5 185.5t-109.5 132.5t-172 49
q-99 0 -170.5 -48.5t-108.5 -132t-37 -186.5t37 -188t108.5 -134.5t170.5 -49.5q100 0 172 50zM249 1413h182l221 -300h-127z" />
    <glyph glyph-name="oacute" unicode="&#xf3;" horiz-adv-x="1145" 
d="M316 52.5q-112 69.5 -174.5 188t-62.5 261.5q0 141 62.5 259t174.5 186.5t255 68.5t256 -68.5t176 -186.5t63 -259q0 -142 -63 -261t-176 -188.5t-256 -69.5t-255 69.5zM743 180q72 50 109.5 134.5t37.5 187.5q0 102 -37.5 185.5t-109.5 132.5t-172 49
q-99 0 -170.5 -48.5t-108.5 -132t-37 -186.5t37 -188t108.5 -134.5t170.5 -49.5q100 0 172 50zM710 1413h181l-275 -287h-127z" />
    <glyph glyph-name="ocircumflex" unicode="&#xf4;" horiz-adv-x="1145" 
d="M316 52.5q-112 69.5 -174.5 188t-62.5 261.5q0 141 62.5 259t174.5 186.5t255 68.5t256 -68.5t176 -186.5t63 -259q0 -142 -63 -261t-176 -188.5t-256 -69.5t-255 69.5zM743 180q72 50 109.5 134.5t37.5 187.5q0 102 -37.5 185.5t-109.5 132.5t-172 49
q-99 0 -170.5 -48.5t-108.5 -132t-37 -186.5t37 -188t108.5 -134.5t170.5 -49.5q100 0 172 50zM571 1438l307 -330h-136l-171 182l-169 -182h-137z" />
    <glyph glyph-name="otilde" unicode="&#xf5;" horiz-adv-x="1145" 
d="M316 52.5q-112 69.5 -174.5 188t-62.5 261.5q0 141 62.5 259t174.5 186.5t255 68.5t256 -68.5t176 -186.5t63 -259q0 -142 -63 -261t-176 -188.5t-256 -69.5t-255 69.5zM743 180q72 50 109.5 134.5t37.5 187.5q0 102 -37.5 185.5t-109.5 132.5t-172 49
q-99 0 -170.5 -48.5t-108.5 -132t-37 -186.5t37 -188t108.5 -134.5t170.5 -49.5q100 0 172 50zM633.5 1148q-31.5 14 -52.5 34t-47 51q-28 34 -48.5 50.5t-48.5 16.5q-42 0 -66.5 -40t-24.5 -113h-100q0 123 52 191.5t143 68.5q55 0 90.5 -25t74.5 -71q30 -35 52 -52.5
t52 -17.5q37 0 60.5 42.5t23.5 115.5h103q0 -124 -51 -194.5t-138 -70.5q-43 0 -74.5 14z" />
    <glyph glyph-name="odieresis" unicode="&#xf6;" horiz-adv-x="1145" 
d="M316 52.5q-112 69.5 -174.5 188t-62.5 261.5q0 141 62.5 259t174.5 186.5t255 68.5t256 -68.5t176 -186.5t63 -259q0 -142 -63 -261t-176 -188.5t-256 -69.5t-255 69.5zM743 180q72 50 109.5 134.5t37.5 187.5q0 102 -37.5 185.5t-109.5 132.5t-172 49
q-99 0 -170.5 -48.5t-108.5 -132t-37 -186.5t37 -188t108.5 -134.5t170.5 -49.5q100 0 172 50zM312 1413h144v-212h-144v212zM686 1413h144v-212h-144v212z" />
    <glyph glyph-name="divide" unicode="&#xf7;" horiz-adv-x="1004" 
d="M407 1097h184v-235h-184v235zM115 694h768v-130h-768v130zM407 378h184v-235h-184v235z" />
    <glyph glyph-name="oslash" unicode="&#xf8;" horiz-adv-x="1145" 
d="M1015.5 737q50.5 -108 50.5 -235q0 -142 -63 -261t-176 -188.5t-256 -69.5q-130 0 -236 59l-26 -42h-91l52 85q-90 71 -140.5 180t-50.5 237q0 141 62.5 259t174.5 186.5t255 68.5q130 0 238 -58l25 41h91l-51 -83q91 -71 141.5 -179zM280 344q25 -73 73 -124l376 609
q-68 40 -158 40q-99 0 -170.5 -48.5t-108.5 -132t-37 -186.5q0 -85 25 -158zM743 180q72 50 109.5 134.5t37.5 187.5q0 84 -25.5 156.5t-74.5 122.5l-376 -610q69 -41 157 -41q100 0 172 50z" />
    <glyph glyph-name="ugrave" unicode="&#xf9;" horiz-adv-x="1136" 
d="M297.5 35.5q-78.5 52.5 -116.5 142t-40 200.5v621h168v-591q0 -126 59 -197t171 -71q122 0 191.5 72.5t69.5 210.5v576h168v-999h-168v152q-49 -83 -131 -126t-176 -43q-117 0 -195.5 52.5zM243 1413h182l221 -300h-127z" />
    <glyph glyph-name="uacute" unicode="&#xfa;" horiz-adv-x="1136" 
d="M297.5 35.5q-78.5 52.5 -116.5 142t-40 200.5v621h168v-591q0 -126 59 -197t171 -71q122 0 191.5 72.5t69.5 210.5v576h168v-999h-168v152q-49 -83 -131 -126t-176 -43q-117 0 -195.5 52.5zM704 1413h181l-275 -287h-127z" />
    <glyph glyph-name="ucircumflex" unicode="&#xfb;" horiz-adv-x="1136" 
d="M297.5 35.5q-78.5 52.5 -116.5 142t-40 200.5v621h168v-591q0 -126 59 -197t171 -71q122 0 191.5 72.5t69.5 210.5v576h168v-999h-168v152q-49 -83 -131 -126t-176 -43q-117 0 -195.5 52.5zM565 1438l307 -330h-136l-171 182l-169 -182h-137z" />
    <glyph glyph-name="udieresis" unicode="&#xfc;" horiz-adv-x="1136" 
d="M297.5 35.5q-78.5 52.5 -116.5 142t-40 200.5v621h168v-591q0 -126 59 -197t171 -71q122 0 191.5 72.5t69.5 210.5v576h168v-999h-168v152q-49 -83 -131 -126t-176 -43q-117 0 -195.5 52.5zM306 1413h144v-212h-144v212zM680 1413h144v-212h-144v212z" />
    <glyph glyph-name="yacute" unicode="&#xfd;" horiz-adv-x="1024" 
d="M435 17l-414 982h187l317 -786l290 786h186l-556 -1428h-185zM647 1413h181l-275 -287h-127z" />
    <glyph glyph-name="thorn" unicode="&#xfe;" horiz-adv-x="1191" 
d="M906 946.5q96 -69.5 146.5 -187t50.5 -260.5t-50.5 -260.5t-147 -186.5t-229.5 -69q-107 0 -195 51.5t-136 145.5v-594h-175v1827h175v-594q48 93 137.5 145t196.5 52q131 0 227 -69.5zM473 812.5q-70 -46.5 -106.5 -128t-36.5 -185.5q0 -103 37 -185.5t106.5 -129.5
t164.5 -47t161.5 47.5t100 129.5t33.5 185t-33.5 184.5t-100 128.5t-161.5 47t-165 -46.5z" />
    <glyph glyph-name="ydieresis" unicode="&#xff;" horiz-adv-x="1024" 
d="M435 17l-414 982h187l317 -786l290 786h186l-556 -1428h-185zM249 1413h144v-212h-144v212zM623 1413h144v-212h-144v212z" />
    <glyph glyph-name="Amacron" unicode="&#x100;" horiz-adv-x="1315" 
d="M588 1413h140l538 -1413h-191l-118 330h-595l-120 -330h-192zM902 481l-243 680l-242 -680h485zM381 1712h552v-103h-552v103z" />
    <glyph glyph-name="amacron" unicode="&#x101;" 
d="M732.5 966.5q92.5 -49.5 140.5 -141.5t48 -216v-609h-141l-11 178q-51 -94 -145 -144.5t-201 -50.5q-102 0 -181.5 37.5t-124.5 108t-45 167.5q0 149 108.5 217.5t303.5 68.5h283q-1 100 -25 162.5t-79.5 93t-149.5 30.5q-171 0 -272 -156l-130 94q76 104 172 157t228 53
q129 0 221.5 -49.5zM659.5 201.5q81.5 73.5 107.5 191.5v65h-273q-123 0 -185.5 -45t-62.5 -123q0 -74 55 -118t155 -44q122 0 203.5 73.5zM232 1298h552v-103h-552v103z" />
    <glyph glyph-name="Abreve" unicode="&#x102;" horiz-adv-x="1315" 
d="M588 1413h140l538 -1413h-191l-118 330h-595l-120 -330h-192zM902 481l-243 680l-242 -680h485zM425.5 1628q-76.5 68 -76.5 199h121q0 -80 50 -122t137 -42q88 0 137.5 42t49.5 122h121q0 -132 -78 -199.5t-230 -67.5q-155 0 -231.5 68z" />
    <glyph glyph-name="abreve" unicode="&#x103;" 
d="M732.5 966.5q92.5 -49.5 140.5 -141.5t48 -216v-609h-141l-11 178q-51 -94 -145 -144.5t-201 -50.5q-102 0 -181.5 37.5t-124.5 108t-45 167.5q0 149 108.5 217.5t303.5 68.5h283q-1 100 -25 162.5t-79.5 93t-149.5 30.5q-171 0 -272 -156l-130 94q76 104 172 157t228 53
q129 0 221.5 -49.5zM659.5 201.5q81.5 73.5 107.5 191.5v65h-273q-123 0 -185.5 -45t-62.5 -123q0 -74 55 -118t155 -44q122 0 203.5 73.5zM276.5 1214q-76.5 68 -76.5 199h121q0 -80 50 -122t137 -42q88 0 137.5 42t49.5 122h121q0 -132 -78 -199.5t-230 -67.5
q-155 0 -231.5 68z" />
    <glyph glyph-name="Aogonek" unicode="&#x104;" horiz-adv-x="1315" 
d="M1352 -334q-81 -120 -217 -120q-63 0 -111 24t-75 68t-27 103q0 67 34 121.5t80.5 89.5t84.5 48h-46l-118 330h-595l-120 -330h-192l538 1413h140l538 -1413h-1q-46 -13 -102 -46t-96.5 -83t-40.5 -109q0 -109 105 -109q43 0 75 18t59 55zM902 481l-243 680l-242 -680
h485z" />
    <glyph glyph-name="aogonek" unicode="&#x105;" 
d="M1008 -334q-81 -120 -217 -120q-63 0 -111 24t-75 68t-27 103q0 68 35 123t82.5 90.5t84.5 46.5l-11 177q-51 -94 -145 -144.5t-201 -50.5q-102 0 -181.5 37.5t-124.5 108t-45 167.5q0 149 108.5 217.5t303.5 68.5h283q-1 100 -25 162.5t-79.5 93t-149.5 30.5
q-171 0 -272 -156l-130 94q76 104 172 157t228 53q129 0 221.5 -49.5t140.5 -141.5t48 -216v-609q-46 -13 -102 -46t-96.5 -83t-40.5 -109q0 -109 105 -109q43 0 75 18t59 55zM659.5 201.5q81.5 73.5 107.5 191.5v65h-273q-123 0 -185.5 -45t-62.5 -123q0 -74 55 -118
t155 -44q122 0 203.5 73.5z" />
    <glyph glyph-name="Cacute" unicode="&#x106;" horiz-adv-x="1447" 
d="M412 77.5q-148 94.5 -222 258.5t-74 372q0 209 74.5 372.5t223 257.5t362.5 94q209 0 359 -99t230 -291l-165 -66q-48 149 -155.5 218.5t-270.5 69.5q-159 0 -267.5 -69t-162 -192.5t-53.5 -287.5q0 -165 51 -291.5t158.5 -199.5t270.5 -73q159 0 264.5 70t168.5 221
l163 -67q-83 -192 -235.5 -292t-360.5 -100q-211 0 -359 94.5zM893 1827h181l-275 -287h-127z" />
    <glyph glyph-name="cacute" unicode="&#x107;" horiz-adv-x="1012" 
d="M296 52.5q-104 69.5 -158 187t-54 258.5q0 136 52 254.5t155.5 191t251.5 72.5q142 0 249.5 -71.5t162.5 -209.5l-161 -63q-30 88 -96.5 139t-154.5 51q-95 0 -160 -50.5t-96 -133.5t-31 -180q0 -98 31 -180t95.5 -131.5t160.5 -49.5q89 0 155 50.5t93 136.5l154 -58
q-47 -134 -152.5 -208.5t-247.5 -74.5q-145 0 -249 69.5zM681 1413h181l-275 -287h-127z" />
    <glyph glyph-name="Cdotaccent" unicode="&#x10a;" horiz-adv-x="1447" 
d="M412 77.5q-148 94.5 -222 258.5t-74 372q0 209 74.5 372.5t223 257.5t362.5 94q209 0 359 -99t230 -291l-165 -66q-48 149 -155.5 218.5t-270.5 69.5q-159 0 -267.5 -69t-162 -192.5t-53.5 -287.5q0 -165 51 -291.5t158.5 -199.5t270.5 -73q159 0 264.5 70t168.5 221
l163 -67q-83 -192 -235.5 -292t-360.5 -100q-211 0 -359 94.5zM665 1827h178v-212h-178v212z" />
    <glyph glyph-name="cdotaccent" unicode="&#x10b;" horiz-adv-x="1012" 
d="M296 52.5q-104 69.5 -158 187t-54 258.5q0 136 52 254.5t155.5 191t251.5 72.5q142 0 249.5 -71.5t162.5 -209.5l-161 -63q-30 88 -96.5 139t-154.5 51q-95 0 -160 -50.5t-96 -133.5t-31 -180q0 -98 31 -180t95.5 -131.5t160.5 -49.5q89 0 155 50.5t93 136.5l154 -58
q-47 -134 -152.5 -208.5t-247.5 -74.5q-145 0 -249 69.5zM454 1413h178v-212h-178v212z" />
    <glyph glyph-name="Ccaron" unicode="&#x10c;" horiz-adv-x="1447" 
d="M412 77.5q-148 94.5 -222 258.5t-74 372q0 209 74.5 372.5t223 257.5t362.5 94q209 0 359 -99t230 -291l-165 -66q-48 149 -155.5 218.5t-270.5 69.5q-159 0 -267.5 -69t-162 -192.5t-53.5 -287.5q0 -165 51 -291.5t158.5 -199.5t270.5 -73q159 0 264.5 70t168.5 221
l163 -67q-83 -192 -235.5 -292t-360.5 -100q-211 0 -359 94.5zM448 1827h136l170 -175l170 175h137l-307 -316z" />
    <glyph glyph-name="ccaron" unicode="&#x10d;" horiz-adv-x="1012" 
d="M296 52.5q-104 69.5 -158 187t-54 258.5q0 136 52 254.5t155.5 191t251.5 72.5q142 0 249.5 -71.5t162.5 -209.5l-161 -63q-30 88 -96.5 139t-154.5 51q-95 0 -160 -50.5t-96 -133.5t-31 -180q0 -98 31 -180t95.5 -131.5t160.5 -49.5q89 0 155 50.5t93 136.5l154 -58
q-47 -134 -152.5 -208.5t-247.5 -74.5q-145 0 -249 69.5zM237 1413h136l170 -175l170 175h137l-307 -316z" />
    <glyph glyph-name="Dcaron" unicode="&#x10e;" horiz-adv-x="1440" 
d="M210 1413h391q235 0 397 -83t245 -243.5t83 -390.5q0 -220 -84.5 -376t-247.5 -238t-395 -82h-389v1413zM582 162q275 0 421.5 132t146.5 409q0 281 -134 414.5t-418 133.5h-212v-1089h196zM430 1827h136l170 -175l170 175h137l-307 -316z" />
    <glyph glyph-name="dcaron" unicode="&#x10f;" horiz-adv-x="1200" 
d="M294 52.5q-100 69.5 -154 187.5t-54 260q0 141 53.5 259t153 187.5t231.5 69.5q107 0 196.5 -52t137.5 -145v594h172v-1413h-158l-7 189q-48 -98 -138.5 -152t-199.5 -54q-133 0 -233 69.5zM731 184q69 47 105 129.5t36 186.5q0 103 -36 185.5t-105 129.5t-164 47
t-165 -47.5t-107 -130t-37 -184.5q0 -103 37 -185.5t107 -130t165 -47.5t164 47zM1252 1413h178l-192 -431h-103z" />
    <glyph glyph-name="Dcroat" unicode="&#x110;" horiz-adv-x="1440" 
d="M998 1330q162 -83 245 -243.5t83 -390.5q0 -220 -84.5 -376t-247.5 -238t-395 -82h-389v649h-149v116h149v648h391q235 0 397 -83zM1003.5 294q146.5 132 146.5 409q0 281 -134 414.5t-418 133.5h-212v-486h310v-116h-310v-487h196q275 0 421.5 132z" />
    <glyph glyph-name="dcroat" unicode="&#x111;" horiz-adv-x="1200" 
d="M1165 1161h-135v-1161h-158l-7 189q-48 -98 -138.5 -152t-199.5 -54q-133 0 -233 69.5t-154 187.5t-54 260q0 141 53.5 259t153 187.5t231.5 69.5q107 0 196.5 -52t137.5 -145v342h-328v116h328v136h172v-136h135v-116zM731 184q69 47 105 129.5t36 186.5
q0 103 -36 185.5t-105 129.5t-164 47t-165 -47.5t-107 -130t-37 -184.5q0 -103 37 -185.5t107 -130t165 -47.5t164 47z" />
    <glyph glyph-name="Emacron" unicode="&#x112;" horiz-adv-x="1264" 
d="M210 1413h929v-162h-753v-461h685v-163h-685v-460h753v-167h-929v1413zM400 1712h552v-103h-552v103z" />
    <glyph glyph-name="emacron" unicode="&#x113;" horiz-adv-x="1072" 
d="M303 51q-108 68 -163 184.5t-55 259.5q0 141 53 260t157.5 190t251.5 71q157 0 256.5 -72t143.5 -180.5t44 -222.5q0 -27 -2.5 -53.5t-5.5 -38.5h-719q10 -147 86.5 -229.5t214.5 -82.5q84 0 149 27.5t126 92.5l118 -103q-83 -89 -177.5 -130t-216.5 -41q-153 0 -261 68z
M823 573q0 43 -4 63q-9 65 -42.5 118.5t-92 86t-138.5 32.5q-123 0 -195 -81.5t-87 -218.5h559zM257 1298h552v-103h-552v103z" />
    <glyph glyph-name="Edotaccent" unicode="&#x116;" horiz-adv-x="1264" 
d="M210 1413h929v-162h-753v-461h685v-163h-685v-460h753v-167h-929v1413zM586 1827h178v-212h-178v212z" />
    <glyph glyph-name="edotaccent" unicode="&#x117;" horiz-adv-x="1072" 
d="M303 51q-108 68 -163 184.5t-55 259.5q0 141 53 260t157.5 190t251.5 71q157 0 256.5 -72t143.5 -180.5t44 -222.5q0 -27 -2.5 -53.5t-5.5 -38.5h-719q10 -147 86.5 -229.5t214.5 -82.5q84 0 149 27.5t126 92.5l118 -103q-83 -89 -177.5 -130t-216.5 -41q-153 0 -261 68z
M823 573q0 43 -4 63q-9 65 -42.5 118.5t-92 86t-138.5 32.5q-123 0 -195 -81.5t-87 -218.5h559zM443 1413h178v-212h-178v212z" />
    <glyph glyph-name="Eogonek" unicode="&#x118;" horiz-adv-x="1264" 
d="M1226 -334q-81 -120 -217 -120q-63 0 -111 24t-75 68t-27 103q0 67 34 121.5t80.5 89.5t84.5 48h-785v1413h929v-162h-753v-461h685v-163h-685v-460h753v-167q-46 -13 -102 -46t-96.5 -83t-40.5 -109q0 -109 105 -109q43 0 75 18t59 55z" />
    <glyph glyph-name="eogonek" unicode="&#x119;" horiz-adv-x="1072" 
d="M988.5 487.5q-2.5 -26.5 -5.5 -38.5h-719q10 -147 86.5 -229.5t214.5 -82.5q84 0 149 27.5t126 92.5l118 -103q-54 -58 -112 -95t-124 -56q-61 -36 -101.5 -86t-40.5 -109q0 -109 105 -109q43 0 75 18t59 55l87 -60q-81 -120 -217 -120q-63 0 -111 24t-75 68t-27 103
t27 108.5t70 87.5h-9q-153 0 -261 68t-163 184.5t-55 259.5q0 141 53 260t157.5 190t251.5 71q157 0 256.5 -72t143.5 -180.5t44 -222.5q0 -27 -2.5 -53.5zM823 573q0 43 -4 63q-9 65 -42.5 118.5t-92 86t-138.5 32.5q-123 0 -195 -81.5t-87 -218.5h559z" />
    <glyph glyph-name="Ecaron" unicode="&#x11a;" horiz-adv-x="1264" 
d="M210 1413h929v-162h-753v-461h685v-163h-685v-460h753v-167h-929v1413zM369 1827h136l170 -175l170 175h137l-307 -316z" />
    <glyph glyph-name="ecaron" unicode="&#x11b;" horiz-adv-x="1072" 
d="M303 51q-108 68 -163 184.5t-55 259.5q0 141 53 260t157.5 190t251.5 71q157 0 256.5 -72t143.5 -180.5t44 -222.5q0 -27 -2.5 -53.5t-5.5 -38.5h-719q10 -147 86.5 -229.5t214.5 -82.5q84 0 149 27.5t126 92.5l118 -103q-83 -89 -177.5 -130t-216.5 -41q-153 0 -261 68z
M823 573q0 43 -4 63q-9 65 -42.5 118.5t-92 86t-138.5 32.5q-123 0 -195 -81.5t-87 -218.5h559zM226 1413h136l170 -175l170 175h137l-307 -316z" />
    <glyph glyph-name="Gbreve" unicode="&#x11e;" horiz-adv-x="1539" 
d="M412 77.5q-148 94.5 -222 258.5t-74 372q0 209 74 372.5t222.5 257.5t363.5 94q209 0 358.5 -99t229.5 -291l-157 -66q-106 301 -433 301q-159 0 -267.5 -72t-162 -198.5t-53.5 -291.5t51 -294.5t158.5 -204.5t270.5 -75q181 0 295 93.5t139 270.5l4 92h-336v143h509
v-740h-140l-15 236q-66 -121 -183 -187t-273 -66q-211 0 -359 94.5zM539.5 1628q-76.5 68 -76.5 199h121q0 -80 50 -122t137 -42q88 0 137.5 42t49.5 122h121q0 -132 -78 -199.5t-230 -67.5q-155 0 -231.5 68z" />
    <glyph glyph-name="gbreve" unicode="&#x11f;" horiz-adv-x="1051" 
d="M779.5 89.5q81.5 -23.5 137.5 -80.5t56 -159q0 -100 -54.5 -171t-150.5 -107t-220 -36q-144 0 -247.5 44t-157.5 121.5t-54 178.5q0 24 3 44l138 123q-119 62 -119 193q0 63 26 111t77 86q-41 46 -63 104t-22 124q0 101 52 181t141 125t196 45q70 0 133 -19.5t114 -55.5
l142 123l88 -110l-137 -114q50 -81 50 -184t-51 -182t-139 -122t-195 -43q-112 0 -204 47q-62 -30 -62 -87q0 -44 33.5 -69t87 -37t155.5 -26l35 -5q130 -19 211.5 -42.5zM408 856q-50 -28 -77 -78t-27 -114t26.5 -112.5t76 -76t116.5 -27.5t116 27t75 76t26 112
q0 65 -26 115t-75 78t-115 28t-116 -28zM740.5 -288q71.5 43 71.5 120q0 52 -35.5 81t-96 43t-171.5 28q-9 1 -65.5 8t-108.5 19l-94 -123l3 -30q15 -92 96.5 -140.5t206.5 -48.5q122 0 193.5 43zM295.5 1214q-76.5 68 -76.5 199h121q0 -80 50 -122t137 -42q88 0 137.5 42
t49.5 122h121q0 -132 -78 -199.5t-230 -67.5q-155 0 -231.5 68z" />
    <glyph glyph-name="Gdotaccent" unicode="&#x120;" horiz-adv-x="1539" 
d="M412 77.5q-148 94.5 -222 258.5t-74 372q0 209 74 372.5t222.5 257.5t363.5 94q209 0 358.5 -99t229.5 -291l-157 -66q-106 301 -433 301q-159 0 -267.5 -72t-162 -198.5t-53.5 -291.5t51 -294.5t158.5 -204.5t270.5 -75q181 0 295 93.5t139 270.5l4 92h-336v143h509
v-740h-140l-15 236q-66 -121 -183 -187t-273 -66q-211 0 -359 94.5zM682 1827h178v-212h-178v212z" />
    <glyph glyph-name="gdotaccent" unicode="&#x121;" horiz-adv-x="1051" 
d="M779.5 89.5q81.5 -23.5 137.5 -80.5t56 -159q0 -100 -54.5 -171t-150.5 -107t-220 -36q-144 0 -247.5 44t-157.5 121.5t-54 178.5q0 24 3 44l138 123q-119 62 -119 193q0 63 26 111t77 86q-41 46 -63 104t-22 124q0 101 52 181t141 125t196 45q70 0 133 -19.5t114 -55.5
l142 123l88 -110l-137 -114q50 -81 50 -184t-51 -182t-139 -122t-195 -43q-112 0 -204 47q-62 -30 -62 -87q0 -44 33.5 -69t87 -37t155.5 -26l35 -5q130 -19 211.5 -42.5zM408 856q-50 -28 -77 -78t-27 -114t26.5 -112.5t76 -76t116.5 -27.5t116 27t75 76t26 112
q0 65 -26 115t-75 78t-115 28t-116 -28zM740.5 -288q71.5 43 71.5 120q0 52 -35.5 81t-96 43t-171.5 28q-9 1 -65.5 8t-108.5 19l-94 -123l3 -30q15 -92 96.5 -140.5t206.5 -48.5q122 0 193.5 43zM438 1413h178v-212h-178v212z" />
    <glyph glyph-name="uni0122" unicode="&#x122;" horiz-adv-x="1539" 
d="M412 77.5q-148 94.5 -222 258.5t-74 372q0 209 74 372.5t222.5 257.5t363.5 94q209 0 358.5 -99t229.5 -291l-157 -66q-106 301 -433 301q-159 0 -267.5 -72t-162 -198.5t-53.5 -291.5t51 -294.5t158.5 -204.5t270.5 -75q181 0 295 93.5t139 270.5l4 92h-336v143h509
v-740h-140l-15 236q-66 -121 -183 -187t-273 -66q-211 0 -359 94.5zM705 -111h178l-241 -340h-104z" />
    <glyph glyph-name="uni0123" unicode="&#x123;" horiz-adv-x="1047" 
d="M582 1123h-178l241 304h104zM779.5 89.5q81.5 -23.5 137.5 -80.5t56 -159q0 -100 -54.5 -171t-150.5 -107t-220 -36q-144 0 -247.5 44t-157.5 121.5t-54 178.5q0 24 3 44l138 123q-119 62 -119 193q0 63 26 111t77 86q-41 46 -63 104t-22 124q0 101 52 181t141 125
t196 45q70 0 133 -19.5t114 -55.5l142 123l88 -110l-137 -114q50 -81 50 -184t-51 -182t-139 -122t-195 -43q-112 0 -204 47q-62 -30 -62 -87q0 -44 33.5 -69t87 -37t155.5 -26l35 -5q130 -19 211.5 -42.5zM408 856q-50 -28 -77 -78t-27 -114t26.5 -112.5t76 -76
t116.5 -27.5t116 27t75 76t26 112q0 65 -26 115t-75 78t-115 28t-116 -28zM740.5 -288q71.5 43 71.5 120q0 52 -35.5 81t-96 43t-171.5 28q-9 1 -65.5 8t-108.5 19l-94 -123l3 -30q15 -92 96.5 -140.5t206.5 -48.5q122 0 193.5 43z" />
    <glyph glyph-name="Hbar" unicode="&#x126;" horiz-adv-x="1473" 
d="M1387 1064h-124v-1064h-176v628h-701v-628h-176v1064h-124v102h124v247h176v-247h701v247h176v-247h124v-102zM1087 1064h-701v-273h701v273z" />
    <glyph glyph-name="hbar" unicode="&#x127;" horiz-adv-x="1142" 
d="M841.5 963.5q79.5 -52.5 118.5 -141.5t41 -200v-622h-172v591q0 271 -223 271q-84 0 -143.5 -40t-90 -110.5t-30.5 -162.5v-549h-172v1131h-170v116h170v166h172v-166h293v-116h-293v-284q50 83 129.5 126t173.5 43q117 0 196.5 -52.5z" />
    <glyph glyph-name="Itilde" unicode="&#x128;" horiz-adv-x="597" 
d="M210 1413h176v-1413h-176v1413zM358.5 1562q-31.5 14 -52.5 34t-47 51q-28 34 -48.5 50.5t-48.5 16.5q-42 0 -66.5 -40t-24.5 -113h-100q0 123 52 191.5t143 68.5q55 0 90.5 -25t74.5 -71q30 -35 52 -52.5t52 -17.5q37 0 60.5 42.5t23.5 115.5h103q0 -124 -51 -194.5
t-138 -70.5q-43 0 -74.5 14z" />
    <glyph glyph-name="itilde" unicode="&#x129;" horiz-adv-x="505" 
d="M168 999h169v-999h-169v999zM313.5 1148q-31.5 14 -52.5 34t-47 51q-28 34 -48.5 50.5t-48.5 16.5q-42 0 -66.5 -40t-24.5 -113h-100q0 123 52 191.5t143 68.5q55 0 90.5 -25t74.5 -71q30 -35 52 -52.5t52 -17.5q37 0 60.5 42.5t23.5 115.5h103q0 -124 -51 -194.5
t-138 -70.5q-43 0 -74.5 14z" />
    <glyph glyph-name="Imacron" unicode="&#x12a;" horiz-adv-x="597" 
d="M210 1413h176v-1413h-176v1413zM22 1712h552v-103h-552v103z" />
    <glyph glyph-name="imacron" unicode="&#x12b;" horiz-adv-x="505" 
d="M168 999h169v-999h-169v999zM-23 1298h552v-103h-552v103z" />
    <glyph glyph-name="Iogonek" unicode="&#x12e;" horiz-adv-x="597" 
d="M473 -334q-81 -120 -217 -120q-63 0 -111 24t-75 68t-27 103q0 67 34 121.5t80.5 89.5t84.5 48h-32v1413h176v-1413q-46 -13 -102 -46t-96.5 -83t-40.5 -109q0 -109 105 -109q43 0 75 18t59 55z" />
    <glyph glyph-name="iogonek" unicode="&#x12f;" horiz-adv-x="505" 
d="M341 1201h-178v212h178v-212zM424 -334q-81 -120 -217 -120q-63 0 -111 24t-75 68t-27 103q0 67 34 121.5t80.5 89.5t84.5 48h-25v999h169v-999q-46 -13 -102 -46t-96.5 -83t-40.5 -109q0 -109 105 -109q43 0 75 18t59 55z" />
    <glyph glyph-name="Idotaccent" unicode="&#x130;" horiz-adv-x="597" 
d="M210 1413h176v-1413h-176v1413zM208 1827h178v-212h-178v212z" />
    <glyph glyph-name="dotlessi" unicode="&#x131;" horiz-adv-x="505" 
d="M168 999h169v-999h-169v999z" />
    <glyph glyph-name="IJ" unicode="&#x132;" horiz-adv-x="1757" 
d="M210 1413h176v-1413h-176v1413zM885 40q-101 57 -158.5 157t-66.5 225l173 19q9 -133 82.5 -213.5t203.5 -80.5q152 0 215.5 89.5t63.5 274.5v740h-560v162h737v-900q0 -249 -111.5 -389.5t-344.5 -140.5q-133 0 -234 57z" />
    <glyph glyph-name="uni0136" unicode="&#x136;" horiz-adv-x="1464" 
d="M210 1413h176v-812l768 812h237l-549 -564l571 -849h-218l-475 730l-334 -344v-386h-176v1413zM645 -111h178l-241 -340h-104z" />
    <glyph glyph-name="uni0137" unicode="&#x137;" horiz-adv-x="1100" 
d="M170 1413h169v-915l469 501h221l-367 -378l419 -621h-200l-334 516l-208 -221v-295h-169v1413zM536 -111h178l-241 -340h-104z" />
    <glyph glyph-name="kgreenlandic" unicode="&#x138;" horiz-adv-x="1098" 
d="M168 999h169v-501l469 501h221l-367 -378l419 -621h-200l-334 516l-208 -221v-295h-169v999z" />
    <glyph glyph-name="Lacute" unicode="&#x139;" horiz-adv-x="1070" 
d="M210 1413h176v-1246h633v-167h-809v1413zM437 1827h181l-275 -287h-127z" />
    <glyph glyph-name="lacute" unicode="&#x13a;" horiz-adv-x="558" 
d="M208.5 37.5q-46.5 54.5 -46.5 169.5v1206h170v-1161q0 -56 21 -86t78 -30q31 0 77 8l1 -143q-83 -18 -154 -18q-100 0 -146.5 54.5zM408 1825h181l-275 -287h-127z" />
    <glyph glyph-name="uni013B" unicode="&#x13b;" horiz-adv-x="1070" 
d="M210 1413h176v-1246h633v-167h-809v1413zM540 -111h178l-241 -340h-104z" />
    <glyph glyph-name="uni013C" unicode="&#x13c;" horiz-adv-x="558" 
d="M208.5 37.5q-46.5 54.5 -46.5 169.5v1206h170v-1161q0 -56 21 -86t78 -30q31 0 77 8l1 -143q-83 -18 -154 -18q-100 0 -146.5 54.5zM288 -111h178l-241 -340h-104z" />
    <glyph glyph-name="Lcaron" unicode="&#x13d;" horiz-adv-x="1070" 
d="M210 1413h176v-1246h633v-167h-809v1413zM761 1413h178l-192 -431h-103z" />
    <glyph glyph-name="lcaron" unicode="&#x13e;" horiz-adv-x="558" 
d="M208.5 37.5q-46.5 54.5 -46.5 169.5v1206h170v-1161q0 -56 21 -86t78 -30q31 0 77 8l1 -143q-83 -18 -154 -18q-100 0 -146.5 54.5zM550 1413h178l-192 -431h-103z" />
    <glyph glyph-name="Lslash" unicode="&#x141;" horiz-adv-x="1070" 
d="M1019 167v-167h-809v362l-139 -157v190l139 157v861h176v-662l291 329v-189l-291 -329v-395h633z" />
    <glyph glyph-name="lslash" unicode="&#x142;" horiz-adv-x="569" 
d="M513 1q-83 -18 -154 -18q-99 0 -145.5 54.5t-46.5 169.5v260l-91 -93v163l91 93v783h169v-612l161 164l1 -162l-162 -165v-386q0 -57 21 -86.5t79 -29.5q30 0 76 8z" />
    <glyph glyph-name="Nacute" unicode="&#x143;" horiz-adv-x="1437" 
d="M1227 1413v-1413h-182l-665 1127v-1127h-170v1413h180l667 -1124v1124h170zM856 1827h181l-275 -287h-127z" />
    <glyph glyph-name="nacute" unicode="&#x144;" horiz-adv-x="1137" 
d="M168 999h169v-152q50 83 131 126t175 43q117 0 195.5 -52.5t117 -141.5t40.5 -200v-622h-169v591q0 126 -59 197t-171 71q-122 0 -191 -72.5t-69 -210.5v-576h-169v999zM712 1413h181l-275 -287h-127z" />
    <glyph glyph-name="uni0145" unicode="&#x145;" horiz-adv-x="1437" 
d="M1227 1413v-1413h-182l-665 1127v-1127h-170v1413h180l667 -1124v1124h170zM643 -111h178l-241 -340h-104z" />
    <glyph glyph-name="uni0146" unicode="&#x146;" horiz-adv-x="1137" 
d="M168 999h169v-152q50 83 131 126t175 43q117 0 195.5 -52.5t117 -141.5t40.5 -200v-622h-169v591q0 126 -59 197t-171 71q-122 0 -191 -72.5t-69 -210.5v-576h-169v999zM500 -111h178l-241 -340h-104z" />
    <glyph glyph-name="Ncaron" unicode="&#x147;" horiz-adv-x="1437" 
d="M1227 1413v-1413h-182l-665 1127v-1127h-170v1413h180l667 -1124v1124h170zM411 1827h136l170 -175l170 175h137l-307 -316z" />
    <glyph glyph-name="ncaron" unicode="&#x148;" horiz-adv-x="1137" 
d="M168 999h169v-152q50 83 131 126t175 43q117 0 195.5 -52.5t117 -141.5t40.5 -200v-622h-169v591q0 126 -59 197t-171 71q-122 0 -191 -72.5t-69 -210.5v-576h-169v999zM268 1413h136l170 -175l170 175h137l-307 -316z" />
    <glyph glyph-name="Eng" unicode="&#x14a;" horiz-adv-x="1438" 
d="M1225 1413v-1432q0 -150 -69 -241.5t-227 -91.5q-68 0 -144 18l3 113q58 -14 97 -14q89 0 138 40.5t49 109.5q0 34 -12 54l-680 1162v-1131h-170v1413h180l667 -1131v1131h168z" />
    <glyph glyph-name="eng" unicode="&#x14b;" horiz-adv-x="1181" 
d="M634.5 -426.5q-41.5 8.5 -76.5 20.5l40 127q61 -17 109 -17q65 0 92.5 38t27.5 116v733q0 126 -59 197t-171 71q-122 0 -191.5 -72.5t-69.5 -210.5v-576h-168v999h168v-152q49 83 131 126t176 43q117 0 195.5 -52.5t116.5 -141.5t40 -200v-745q0 -141 -72.5 -226.5
t-211.5 -85.5q-35 0 -76.5 8.5z" />
    <glyph glyph-name="Omacron" unicode="&#x14c;" horiz-adv-x="1548" 
d="M409 81q-148 98 -221 262.5t-73 363.5t73 363t221 262t364 98q217 0 365.5 -98t222 -262t73.5 -363t-73.5 -363.5t-222 -262.5t-365.5 -98q-216 0 -364 98zM1041.5 216q106.5 76 156.5 203.5t50 287.5q0 159 -50 286.5t-156.5 203.5t-268.5 76q-161 0 -267 -76
t-156 -203.5t-50 -286.5t50 -287t156 -204t267 -76q162 0 268.5 76zM498 1712h552v-103h-552v103z" />
    <glyph glyph-name="omacron" unicode="&#x14d;" horiz-adv-x="1145" 
d="M316 52.5q-112 69.5 -174.5 188t-62.5 261.5q0 141 62.5 259t174.5 186.5t255 68.5t256 -68.5t176 -186.5t63 -259q0 -142 -63 -261t-176 -188.5t-256 -69.5t-255 69.5zM743 180q72 50 109.5 134.5t37.5 187.5q0 102 -37.5 185.5t-109.5 132.5t-172 49
q-99 0 -170.5 -48.5t-108.5 -132t-37 -186.5t37 -188t108.5 -134.5t170.5 -49.5q100 0 172 50zM296 1298h552v-103h-552v103z" />
    <glyph glyph-name="Ohungarumlaut" unicode="&#x150;" horiz-adv-x="1548" 
d="M409 81q-148 98 -221 262.5t-73 363.5t73 363t221 262t364 98q217 0 365.5 -98t222 -262t73.5 -363t-73.5 -363.5t-222 -262.5t-365.5 -98q-216 0 -364 98zM1041.5 216q106.5 76 156.5 203.5t50 287.5q0 159 -50 286.5t-156.5 203.5t-268.5 76q-161 0 -267 -76
t-156 -203.5t-50 -286.5t50 -287t156 -204t267 -76q162 0 268.5 76zM726 1827h154l-248 -314h-127zM1084 1827h181l-275 -314h-127z" />
    <glyph glyph-name="ohungarumlaut" unicode="&#x151;" horiz-adv-x="1145" 
d="M316 52.5q-112 69.5 -174.5 188t-62.5 261.5q0 141 62.5 259t174.5 186.5t255 68.5t256 -68.5t176 -186.5t63 -259q0 -142 -63 -261t-176 -188.5t-256 -69.5t-255 69.5zM743 180q72 50 109.5 134.5t37.5 187.5q0 102 -37.5 185.5t-109.5 132.5t-172 49
q-99 0 -170.5 -48.5t-108.5 -132t-37 -186.5t37 -188t108.5 -134.5t170.5 -49.5q100 0 172 50zM525 1413h154l-248 -314h-127zM883 1413h181l-275 -314h-127z" />
    <glyph glyph-name="OE" unicode="&#x152;" horiz-adv-x="2311" 
d="M1433 1251v-461h685v-163h-685v-460h753v-167h-929v182q-85 -95 -206.5 -147t-277.5 -52q-216 0 -364 98t-221 262.5t-73 363.5t73 363t221 262t364 98q156 0 277.5 -52t206.5 -147v182h929v-162h-753zM1041.5 216q106.5 76 156.5 203.5t50 287.5q0 159 -50 286.5
t-156.5 203.5t-268.5 76q-161 0 -267 -76t-156 -203.5t-50 -286.5t50 -287t156 -204t267 -76q162 0 268.5 76z" />
    <glyph glyph-name="oe" unicode="&#x153;" horiz-adv-x="1877" 
d="M1793.5 487.5q-2.5 -26.5 -5.5 -38.5h-719q10 -147 86.5 -229.5t214.5 -82.5q84 0 149 27.5t126 92.5l118 -103q-83 -89 -177.5 -130t-216.5 -41q-136 0 -236.5 54t-161.5 151q-67 -96 -170.5 -150.5t-229.5 -54.5q-143 0 -255 69.5t-174.5 188t-62.5 261.5
q0 141 62.5 259t174.5 186.5t255 68.5q127 0 231 -54.5t171 -150.5q59 96 155 150.5t224 54.5q157 0 256.5 -72t143.5 -180.5t44 -222.5q0 -27 -2.5 -53.5zM1628 573q0 43 -4 63q-9 65 -42.5 118.5t-92 86t-138.5 32.5q-123 0 -195 -81.5t-87 -218.5h559zM743 180
q72 50 109.5 134.5t37.5 187.5q0 102 -37.5 185.5t-109.5 132.5t-172 49q-99 0 -170.5 -48.5t-108.5 -132t-37 -186.5t37 -188t108.5 -134.5t170.5 -49.5q100 0 172 50z" />
    <glyph glyph-name="Racute" unicode="&#x154;" horiz-adv-x="1265" 
d="M210 1413h416q136 0 244.5 -47.5t170.5 -138t62 -215.5q0 -137 -79 -233t-213 -133l392 -646h-201l-362 629q-28 -2 -90 -2h-164v-627h-176v1413zM641 771q137 4 212 66t75 172q0 115 -80 180.5t-221 65.5h-239v-484h253zM761 1827h181l-275 -287h-127z" />
    <glyph glyph-name="racute" unicode="&#x155;" horiz-adv-x="800" 
d="M168 999h165v-196q23 69 70 117t105.5 72t119.5 24q46 0 89 -13.5t76 -41.5l-78 -140q-54 30 -112 30q-68 0 -130 -39t-101.5 -122.5t-39.5 -208.5v-481h-164v999zM583 1413h181l-275 -287h-127z" />
    <glyph glyph-name="uni0156" unicode="&#x156;" horiz-adv-x="1265" 
d="M210 1413h416q136 0 244.5 -47.5t170.5 -138t62 -215.5q0 -137 -79 -233t-213 -133l392 -646h-201l-362 629q-28 -2 -90 -2h-164v-627h-176v1413zM641 771q137 4 212 66t75 172q0 115 -80 180.5t-221 65.5h-239v-484h253zM619 -111h178l-241 -340h-104z" />
    <glyph glyph-name="uni0157" unicode="&#x157;" horiz-adv-x="800" 
d="M168 999h165v-196q23 69 70 117t105.5 72t119.5 24q46 0 89 -13.5t76 -41.5l-78 -140q-54 30 -112 30q-68 0 -130 -39t-101.5 -122.5t-39.5 -208.5v-481h-164v999zM325 -111h178l-241 -340h-104z" />
    <glyph glyph-name="Rcaron" unicode="&#x158;" horiz-adv-x="1265" 
d="M210 1413h416q136 0 244.5 -47.5t170.5 -138t62 -215.5q0 -137 -79 -233t-213 -133l392 -646h-201l-362 629q-28 -2 -90 -2h-164v-627h-176v1413zM641 771q137 4 212 66t75 172q0 115 -80 180.5t-221 65.5h-239v-484h253zM316 1827h136l170 -175l170 175h137l-307 -316z
" />
    <glyph glyph-name="rcaron" unicode="&#x159;" horiz-adv-x="800" 
d="M168 999h165v-196q23 69 70 117t105.5 72t119.5 24q46 0 89 -13.5t76 -41.5l-78 -140q-54 30 -112 30q-68 0 -130 -39t-101.5 -122.5t-39.5 -208.5v-481h-164v999zM138 1413h136l170 -175l170 175h137l-307 -316z" />
    <glyph glyph-name="Sacute" unicode="&#x15a;" horiz-adv-x="1145" 
d="M354 32q-108 46 -181 135.5t-94 215.5l174 44q18 -138 109.5 -211t227.5 -73q87 0 152.5 31t100.5 85t35 122q0 75 -43 127t-106 84.5t-172 75.5q-128 50 -205 92t-131.5 115.5t-54.5 184.5q0 112 55 196t149.5 129t208.5 45q134 0 238.5 -57.5t171.5 -176.5l-146 -90
q-90 167 -270 167q-65 0 -117.5 -26.5t-83 -73t-30.5 -105.5q0 -66 40 -111.5t99.5 -75.5t163.5 -70q132 -51 213 -95t138.5 -122.5t57.5 -197.5q0 -122 -61.5 -215t-168 -144t-237.5 -51q-125 0 -233 46zM712 1827h181l-275 -287h-127z" />
    <glyph glyph-name="sacute" unicode="&#x15b;" horiz-adv-x="922" 
d="M283 18q-84 35 -143 96.5t-84 137.5l137 60q29 -80 96 -133.5t169 -53.5q67 0 114 21.5t70.5 58.5t23.5 82q0 50 -30.5 80.5t-76.5 47.5t-127 37q-103 26 -166.5 51.5t-108.5 80t-45 146.5q0 91 47 155.5t127 97.5t178 33q120 0 212.5 -55t147.5 -156l-131 -71
q-36 66 -94.5 106.5t-140.5 40.5q-84 0 -134 -36t-50 -93q0 -44 29 -71.5t73 -44t120 -36.5q107 -29 174 -57.5t115 -88t48 -159.5q0 -101 -50 -171.5t-133.5 -105.5t-183.5 -35q-99 0 -183 35zM581 1413h181l-275 -287h-127z" />
    <glyph glyph-name="Scedilla" unicode="&#x15e;" horiz-adv-x="1145" 
d="M996 186.5q-58 -91.5 -159 -143.5t-226 -57l-72 -108q37 -3 61 -10q78 -18 119.5 -64.5t41.5 -115.5q0 -59 -27.5 -106t-76 -73.5t-111.5 -26.5q-72 0 -127.5 38.5t-72.5 110.5l95 40q12 -38 41 -63.5t68 -25.5q50 0 79.5 27t29.5 74q0 53 -47.5 86.5t-129.5 37.5l-81 1
l110 182q-109 13 -200 62.5t-152 133.5t-80 197l174 44q18 -138 109.5 -211t227.5 -73q87 0 152.5 31t100.5 85t35 122q0 75 -43 127t-106 84.5t-172 75.5q-128 50 -205 92t-131.5 115.5t-54.5 184.5q0 112 55 196t149.5 129t208.5 45q134 0 238.5 -57.5t171.5 -176.5
l-146 -90q-90 167 -270 167q-65 0 -117.5 -26.5t-83 -73t-30.5 -105.5q0 -66 40 -111.5t99.5 -75.5t163.5 -70q132 -51 213 -95t138.5 -122.5t57.5 -197.5q0 -118 -58 -209.5z" />
    <glyph glyph-name="scedilla" unicode="&#x15f;" horiz-adv-x="922" 
d="M794.5 142q-38.5 -65 -105 -103.5t-149.5 -50.5l-73 -110q37 -3 61 -10q78 -18 119.5 -64.5t41.5 -115.5q0 -59 -27.5 -106t-76 -73.5t-111.5 -26.5q-72 0 -127.5 38.5t-72.5 110.5l95 40q12 -38 41 -63.5t68 -25.5q50 0 79.5 27t29.5 74q0 53 -47.5 86.5t-129.5 37.5
l-81 1l106 176q-91 5 -169 41.5t-132 95.5t-78 131l137 60q29 -80 96 -133.5t169 -53.5q67 0 114 21.5t70.5 58.5t23.5 82q0 50 -30.5 80.5t-76.5 47.5t-127 37q-103 26 -166.5 51.5t-108.5 80t-45 146.5q0 91 47 155.5t127 97.5t178 33q120 0 212.5 -55t147.5 -156
l-131 -71q-36 66 -94.5 106.5t-140.5 40.5q-84 0 -134 -36t-50 -93q0 -44 29 -71.5t73 -44t120 -36.5q107 -29 174 -57.5t115 -88t48 -159.5q0 -88 -38.5 -153z" />
    <glyph glyph-name="Scaron" unicode="&#x160;" horiz-adv-x="1145" 
d="M354 32q-108 46 -181 135.5t-94 215.5l174 44q18 -138 109.5 -211t227.5 -73q87 0 152.5 31t100.5 85t35 122q0 75 -43 127t-106 84.5t-172 75.5q-128 50 -205 92t-131.5 115.5t-54.5 184.5q0 112 55 196t149.5 129t208.5 45q134 0 238.5 -57.5t171.5 -176.5l-146 -90
q-90 167 -270 167q-65 0 -117.5 -26.5t-83 -73t-30.5 -105.5q0 -66 40 -111.5t99.5 -75.5t163.5 -70q132 -51 213 -95t138.5 -122.5t57.5 -197.5q0 -122 -61.5 -215t-168 -144t-237.5 -51q-125 0 -233 46zM268 1827h136l170 -175l170 175h137l-307 -316z" />
    <glyph glyph-name="scaron" unicode="&#x161;" horiz-adv-x="922" 
d="M283 18q-84 35 -143 96.5t-84 137.5l137 60q29 -80 96 -133.5t169 -53.5q67 0 114 21.5t70.5 58.5t23.5 82q0 50 -30.5 80.5t-76.5 47.5t-127 37q-103 26 -166.5 51.5t-108.5 80t-45 146.5q0 91 47 155.5t127 97.5t178 33q120 0 212.5 -55t147.5 -156l-131 -71
q-36 66 -94.5 106.5t-140.5 40.5q-84 0 -134 -36t-50 -93q0 -44 29 -71.5t73 -44t120 -36.5q107 -29 174 -57.5t115 -88t48 -159.5q0 -101 -50 -171.5t-133.5 -105.5t-183.5 -35q-99 0 -183 35zM136 1413h136l170 -175l170 175h137l-307 -316z" />
    <glyph glyph-name="uni0162" unicode="&#x162;" horiz-adv-x="1228" 
d="M526 1255h-476v158h1128v-158h-476v-1255h-176v1255zM467.5 -479.5q-55.5 38.5 -72.5 110.5l95 40q12 -38 41 -63.5t68 -25.5q50 0 79.5 27t29.5 74q0 53 -47.5 86.5t-129.5 37.5l-81 1l115 191h103l-80 -121q37 -3 61 -10q78 -18 119.5 -64.5t41.5 -115.5
q0 -59 -27.5 -106t-76 -73.5t-111.5 -26.5q-72 0 -127.5 38.5z" />
    <glyph glyph-name="uni0163" unicode="&#x163;" horiz-adv-x="720" 
d="M638.5 -196.5q41.5 -46.5 41.5 -115.5q0 -59 -27.5 -106t-76 -73.5t-111.5 -26.5q-72 0 -127.5 38.5t-72.5 110.5l95 40q12 -38 41 -63.5t68 -25.5q50 0 79.5 27t29.5 74q0 53 -47.5 86.5t-129.5 37.5l-81 1l108 179q-109 16 -167 91.5t-58 200.5v577h-165v143h167v276
l167 122v-398h270v-143h-270v-549q0 -92 36.5 -133t108.5 -41q32 0 65.5 8.5t58.5 19.5l1 -154q-50 -18 -114 -22l-70 -107q37 -3 61 -10q78 -18 119.5 -64.5z" />
    <glyph glyph-name="Tcaron" unicode="&#x164;" horiz-adv-x="1228" 
d="M526 1255h-476v158h1128v-158h-476v-1255h-176v1255zM309 1827h136l170 -175l170 175h137l-307 -316z" />
    <glyph glyph-name="tcaron" unicode="&#x165;" horiz-adv-x="720" 
d="M277 60.5q-74 77.5 -74 218.5v577h-165v143h167v276l167 122v-398h270v-143h-270v-549q0 -92 36.5 -133t108.5 -41q32 0 65.5 8.5t58.5 19.5l1 -154q-26 -10 -68 -17t-86 -7q-137 0 -211 77.5zM621 1563h178l-192 -431h-103z" />
    <glyph glyph-name="Tbar" unicode="&#x166;" horiz-adv-x="1228" 
d="M702 1255v-490h231v-116h-231v-649h-176v649h-228v116h228v490h-476v158h1128v-158h-476z" />
    <glyph glyph-name="tbar" unicode="&#x167;" horiz-adv-x="720" 
d="M372 442v-135q0 -92 36.5 -133t108.5 -41q32 0 65.5 8.5t58.5 19.5l1 -154q-26 -10 -68 -17t-86 -7q-137 0 -211 77.5t-74 218.5v163h-173v116h173v298h-165v143h167v276l167 122v-398h270v-143h-270v-298h293v-116h-293z" />
    <glyph glyph-name="Utilde" unicode="&#x168;" horiz-adv-x="1394" 
d="M308.5 128q-128.5 145 -128.5 409v876h176v-857q0 -200 80 -301t260 -101q181 0 261.5 101.5t80.5 304.5v853h176v-866q0 -269 -129 -416.5t-389 -147.5q-259 0 -387.5 145zM756.5 1562q-31.5 14 -52.5 34t-47 51q-28 34 -48.5 50.5t-48.5 16.5q-42 0 -66.5 -40
t-24.5 -113h-100q0 123 52 191.5t143 68.5q55 0 90.5 -25t74.5 -71q30 -35 52 -52.5t52 -17.5q37 0 60.5 42.5t23.5 115.5h103q0 -124 -51 -194.5t-138 -70.5q-43 0 -74.5 14z" />
    <glyph glyph-name="utilde" unicode="&#x169;" horiz-adv-x="1136" 
d="M297.5 35.5q-78.5 52.5 -116.5 142t-40 200.5v621h168v-591q0 -126 59 -197t171 -71q122 0 191.5 72.5t69.5 210.5v576h168v-999h-168v152q-49 -83 -131 -126t-176 -43q-117 0 -195.5 52.5zM627.5 1148q-31.5 14 -52.5 34t-47 51q-28 34 -48.5 50.5t-48.5 16.5
q-42 0 -66.5 -40t-24.5 -113h-100q0 123 52 191.5t143 68.5q55 0 90.5 -25t74.5 -71q30 -35 52 -52.5t52 -17.5q37 0 60.5 42.5t23.5 115.5h103q0 -124 -51 -194.5t-138 -70.5q-43 0 -74.5 14z" />
    <glyph glyph-name="Umacron" unicode="&#x16a;" horiz-adv-x="1394" 
d="M308.5 128q-128.5 145 -128.5 409v876h176v-857q0 -200 80 -301t260 -101q181 0 261.5 101.5t80.5 304.5v853h176v-866q0 -269 -129 -416.5t-389 -147.5q-259 0 -387.5 145zM420 1712h552v-103h-552v103z" />
    <glyph glyph-name="umacron" unicode="&#x16b;" horiz-adv-x="1136" 
d="M297.5 35.5q-78.5 52.5 -116.5 142t-40 200.5v621h168v-591q0 -126 59 -197t171 -71q122 0 191.5 72.5t69.5 210.5v576h168v-999h-168v152q-49 -83 -131 -126t-176 -43q-117 0 -195.5 52.5zM291 1298h552v-103h-552v103z" />
    <glyph glyph-name="Uring" unicode="&#x16e;" horiz-adv-x="1394" 
d="M308.5 128q-128.5 145 -128.5 409v876h176v-857q0 -200 80 -301t260 -101q181 0 261.5 101.5t80.5 304.5v853h176v-866q0 -269 -129 -416.5t-389 -147.5q-259 0 -387.5 145zM590 1528q-47 28 -74.5 75.5t-27.5 103.5t27.5 103t74.5 74.5t103 27.5q55 0 103 -27.5
t76 -74.5t28 -103q0 -57 -27.5 -104.5t-75 -75t-104.5 -27.5q-56 0 -103 28zM774 1626.5q32 32.5 32 81.5q0 47 -31.5 78.5t-81.5 31.5q-48 0 -79.5 -31.5t-31.5 -78.5q0 -49 32 -81.5t79 -32.5q49 0 81 32.5z" />
    <glyph glyph-name="uring" unicode="&#x16f;" horiz-adv-x="1136" 
d="M297.5 35.5q-78.5 52.5 -116.5 142t-40 200.5v621h168v-591q0 -126 59 -197t171 -71q122 0 191.5 72.5t69.5 210.5v576h168v-999h-168v152q-49 -83 -131 -126t-176 -43q-117 0 -195.5 52.5zM461 1114q-47 28 -74.5 75.5t-27.5 103.5t27.5 103t74.5 74.5t103 27.5
q55 0 103 -27.5t76 -74.5t28 -103q0 -57 -27.5 -104.5t-75 -75t-104.5 -27.5q-56 0 -103 28zM645 1212.5q32 32.5 32 81.5q0 47 -31.5 78.5t-81.5 31.5q-48 0 -79.5 -31.5t-31.5 -78.5q0 -49 32 -81.5t79 -32.5q49 0 81 32.5z" />
    <glyph glyph-name="Uhungarumlaut" unicode="&#x170;" horiz-adv-x="1394" 
d="M308.5 128q-128.5 145 -128.5 409v876h176v-857q0 -200 80 -301t260 -101q181 0 261.5 101.5t80.5 304.5v853h176v-866q0 -269 -129 -416.5t-389 -147.5q-259 0 -387.5 145zM649 1827h154l-248 -314h-127zM1007 1827h181l-275 -314h-127z" />
    <glyph glyph-name="uhungarumlaut" unicode="&#x171;" horiz-adv-x="1136" 
d="M297.5 35.5q-78.5 52.5 -116.5 142t-40 200.5v621h168v-591q0 -126 59 -197t171 -71q122 0 191.5 72.5t69.5 210.5v576h168v-999h-168v152q-49 -83 -131 -126t-176 -43q-117 0 -195.5 52.5zM520 1413h154l-248 -314h-127zM878 1413h181l-275 -314h-127z" />
    <glyph glyph-name="Uogonek" unicode="&#x172;" horiz-adv-x="1394" 
d="M1214 1413v-866q0 -216 -83.5 -355t-252.5 -186q-64 -37 -108 -88.5t-44 -112.5q0 -109 105 -109q43 0 75 18t59 55l87 -60q-81 -120 -217 -120q-63 0 -111 24t-75 68t-27 103q0 60 28 110.5t72 88.5h-26q-259 0 -387.5 145t-128.5 409v876h176v-857q0 -200 80 -301
t260 -101q181 0 261.5 101.5t80.5 304.5v853h176z" />
    <glyph glyph-name="uogonek" unicode="&#x173;" horiz-adv-x="1136" 
d="M1055 -334q-81 -120 -217 -120q-63 0 -111 24t-75 68t-27 103q0 67 34 121.5t80.5 89.5t84.5 48h-24v152q-49 -83 -131 -126t-176 -43q-117 0 -195.5 52.5t-116.5 142t-40 200.5v621h168v-591q0 -126 59 -197t171 -71q122 0 191.5 72.5t69.5 210.5v576h168v-999
q-46 -13 -102 -46t-96.5 -83t-40.5 -109q0 -109 105 -109q43 0 75 18t59 55z" />
    <glyph glyph-name="Wcircumflex" unicode="&#x174;" horiz-adv-x="1987" 
d="M61 1413h183l329 -1158l351 1080h140l350 -1080l329 1158h183l-413 -1413h-174l-345 1057l-345 -1057h-175zM995 1841l307 -330h-136l-171 182l-169 -182h-137z" />
    <glyph glyph-name="wcircumflex" unicode="&#x175;" horiz-adv-x="1479" 
d="M40 999h181l202 -742l242 742h150l241 -741l204 741h181l-298 -999h-156l-247 763l-248 -763h-156zM741 1438l307 -330h-136l-171 182l-169 -182h-137z" />
    <glyph glyph-name="Ycircumflex" unicode="&#x176;" horiz-adv-x="1325" 
d="M571 543l-535 870h213l412 -699l414 699h214l-535 -870v-543h-183v543zM659 1852l307 -330h-136l-171 182l-169 -182h-137z" />
    <glyph glyph-name="ycircumflex" unicode="&#x177;" horiz-adv-x="1024" 
d="M435 17l-414 982h187l317 -786l290 786h186l-556 -1428h-185zM508 1438l307 -330h-136l-171 182l-169 -182h-137z" />
    <glyph glyph-name="Ydieresis" unicode="&#x178;" horiz-adv-x="1325" 
d="M571 543l-535 870h213l412 -699l414 699h214l-535 -870v-543h-183v543zM401 1827h144v-212h-144v212zM775 1827h144v-212h-144v212z" />
    <glyph glyph-name="Zacute" unicode="&#x179;" horiz-adv-x="1294" 
d="M1202 1280l-879 -1120h877v-160h-1119v128l882 1123h-836v162h1075v-133zM782 1827h181l-275 -287h-127z" />
    <glyph glyph-name="zacute" unicode="&#x17a;" horiz-adv-x="987" 
d="M911 870l-619 -727h615v-143h-844v119l635 737h-603v143h816v-129zM624 1413h181l-275 -287h-127z" />
    <glyph glyph-name="Zdotaccent" unicode="&#x17b;" horiz-adv-x="1294" 
d="M1202 1280l-879 -1120h877v-160h-1119v128l882 1123h-836v162h1075v-133zM555 1827h178v-212h-178v212z" />
    <glyph glyph-name="zdotaccent" unicode="&#x17c;" horiz-adv-x="987" 
d="M911 870l-619 -727h615v-143h-844v119l635 737h-603v143h816v-129zM396 1413h178v-212h-178v212z" />
    <glyph glyph-name="Zcaron" unicode="&#x17d;" horiz-adv-x="1294" 
d="M1202 1280l-879 -1120h877v-160h-1119v128l882 1123h-836v162h1075v-133zM338 1827h136l170 -175l170 175h137l-307 -316z" />
    <glyph glyph-name="zcaron" unicode="&#x17e;" horiz-adv-x="987" 
d="M911 870l-619 -727h615v-143h-844v119l635 737h-603v143h816v-129zM179 1413h136l170 -175l170 175h137l-307 -316z" />
    <glyph glyph-name="florin" unicode="&#x192;" horiz-adv-x="998" 
d="M111 -319q104 0 164.5 28t88 91.5t27.5 174.5v896h-175v128h175v128q0 91 36 162.5t99.5 111t141.5 39.5q62 0 117.5 -23.5t110.5 -70.5l-93 -110q-36 33 -66.5 46.5t-68.5 13.5q-59 0 -96 -43t-37 -126v-128h258v-128h-258v-910q0 -210 -107 -310t-317 -100v130z" />
    <glyph glyph-name="uni01C3" unicode="&#x1c3;" horiz-adv-x="580" 
d="M207 1413h166l-19 -1005h-128zM198 234h184v-234h-184v234z" />
    <glyph glyph-name="uni01C4" unicode="&#x1c4;" horiz-adv-x="2714" 
d="M210 1413h391q235 0 397 -83t245 -243.5t83 -390.5q0 -220 -84.5 -376t-247.5 -238t-395 -82h-389v1413zM582 162q275 0 421.5 132t146.5 409q0 281 -134 414.5t-418 133.5h-212v-1089h196zM2622 1280l-879 -1120h877v-160h-1119v128l882 1123h-836v162h1075v-133z
M1757 1827h136l170 -175l170 175h137l-307 -316z" />
    <glyph glyph-name="uni01C5" unicode="&#x1c5;" horiz-adv-x="2432" 
d="M210 1413h391q235 0 397 -83t245 -243.5t83 -390.5q0 -220 -84.5 -376t-247.5 -238t-395 -82h-389v1413zM582 162q275 0 421.5 132t146.5 409q0 281 -134 414.5t-418 133.5h-212v-1089h196zM2356 870l-619 -727h615v-143h-844v119l635 737h-603v143h816v-129zM1624 1413
h136l170 -175l170 175h137l-307 -316z" />
    <glyph glyph-name="uni01C6" unicode="&#x1c6;" horiz-adv-x="2187" 
d="M294 52.5q-100 69.5 -154 187.5t-54 260q0 141 53.5 259t153 187.5t231.5 69.5q107 0 196.5 -52t137.5 -145v594h172v-1413h-158l-7 189q-48 -98 -138.5 -152t-199.5 -54q-133 0 -233 69.5zM731 184q69 47 105 129.5t36 186.5q0 103 -36 185.5t-105 129.5t-164 47
t-165 -47.5t-107 -130t-37 -184.5q0 -103 37 -185.5t107 -130t165 -47.5t164 47zM2111 870l-619 -727h615v-143h-844v119l635 737h-603v143h816v-129zM1379 1413h136l170 -175l170 175h137l-307 -316z" />
    <glyph glyph-name="uni01C7" unicode="&#x1c7;" horiz-adv-x="2267" 
d="M210 1413h176v-1246h633v-167h-809v1413zM1395 40q-101 57 -158.5 157t-66.5 225l173 19q9 -133 82.5 -213.5t203.5 -80.5q152 0 215.5 89.5t63.5 274.5v740h-560v162h737v-900q0 -249 -111.5 -389.5t-344.5 -140.5q-133 0 -234 57z" />
    <glyph glyph-name="uni01C8" unicode="&#x1c8;" horiz-adv-x="1589" 
d="M210 1413h176v-1246h633v-167h-809v1413zM1245 1413h178v-212h-178v212zM1061.5 -425.5q-46.5 9.5 -81.5 22.5l44 148q28 -12 57 -19t49 -7q61 0 90 36.5t29 113.5v1130h170v-1118q0 -145 -68.5 -230.5t-204.5 -85.5q-38 0 -84.5 9.5z" />
    <glyph glyph-name="uni01C9" unicode="&#x1c9;" horiz-adv-x="1068" 
d="M208.5 37.5q-46.5 54.5 -46.5 169.5v1206h170v-1161q0 -56 21 -86t78 -30q31 0 77 8l1 -143q-83 -18 -154 -18q-100 0 -146.5 54.5zM725 1413h178v-212h-178v212zM541.5 -425.5q-46.5 9.5 -81.5 22.5l44 148q28 -12 57 -19t49 -7q61 0 90 36.5t29 113.5v1130h170v-1118
q0 -145 -68.5 -230.5t-204.5 -85.5q-38 0 -84.5 9.5z" />
    <glyph glyph-name="uni01CA" unicode="&#x1ca;" horiz-adv-x="2598" 
d="M1227 1413v-1413h-182l-665 1127v-1127h-170v1413h180l667 -1124v1124h170zM1725 40q-101 57 -158.5 157t-66.5 225l173 19q9 -133 82.5 -213.5t203.5 -80.5q152 0 215.5 89.5t63.5 274.5v740h-560v162h737v-900q0 -249 -111.5 -389.5t-344.5 -140.5q-133 0 -234 57z" />
    <glyph glyph-name="uni01CB" unicode="&#x1cb;" horiz-adv-x="1948" 
d="M1227 1413v-1413h-182l-665 1127v-1127h-170v1413h180l667 -1124v1124h170zM1604 1413h178v-212h-178v212zM1420.5 -425.5q-46.5 9.5 -81.5 22.5l44 148q28 -12 57 -19t49 -7q61 0 90 36.5t29 113.5v1130h170v-1118q0 -145 -68.5 -230.5t-204.5 -85.5q-38 0 -84.5 9.5z
" />
    <glyph glyph-name="uni01CC" unicode="&#x1cc;" horiz-adv-x="1648" 
d="M168 999h169v-152q50 83 131 126t175 43q117 0 195.5 -52.5t117 -141.5t40.5 -200v-622h-169v591q0 126 -59 197t-171 71q-122 0 -191 -72.5t-69 -210.5v-576h-169v999zM1304 1413h178v-212h-178v212zM1120.5 -425.5q-46.5 9.5 -81.5 22.5l44 148q28 -12 57 -19t49 -7
q61 0 90 36.5t29 113.5v1130h170v-1118q0 -145 -68.5 -230.5t-204.5 -85.5q-38 0 -84.5 9.5z" />
    <glyph glyph-name="uni01CD" unicode="&#x1cd;" horiz-adv-x="1315" 
d="M588 1413h140l538 -1413h-191l-118 330h-595l-120 -330h-192zM902 481l-243 680l-242 -680h485zM350 1827h136l170 -175l170 175h137l-307 -316z" />
    <glyph glyph-name="uni01CE" unicode="&#x1ce;" 
d="M732.5 966.5q92.5 -49.5 140.5 -141.5t48 -216v-609h-141l-11 178q-51 -94 -145 -144.5t-201 -50.5q-102 0 -181.5 37.5t-124.5 108t-45 167.5q0 149 108.5 217.5t303.5 68.5h283q-1 100 -25 162.5t-79.5 93t-149.5 30.5q-171 0 -272 -156l-130 94q76 104 172 157t228 53
q129 0 221.5 -49.5zM659.5 201.5q81.5 73.5 107.5 191.5v65h-273q-123 0 -185.5 -45t-62.5 -123q0 -74 55 -118t155 -44q122 0 203.5 73.5zM201 1413h136l170 -175l170 175h137l-307 -316z" />
    <glyph glyph-name="uni01CF" unicode="&#x1cf;" horiz-adv-x="597" 
d="M210 1413h176v-1413h-176v1413zM-9 1827h136l170 -175l170 175h137l-307 -316z" />
    <glyph glyph-name="uni01D0" unicode="&#x1d0;" horiz-adv-x="505" 
d="M168 999h169v-999h-169v999zM-54 1413h136l170 -175l170 175h137l-307 -316z" />
    <glyph glyph-name="uni01D1" unicode="&#x1d1;" horiz-adv-x="1548" 
d="M409 81q-148 98 -221 262.5t-73 363.5t73 363t221 262t364 98q217 0 365.5 -98t222 -262t73.5 -363t-73.5 -363.5t-222 -262.5t-365.5 -98q-216 0 -364 98zM1041.5 216q106.5 76 156.5 203.5t50 287.5q0 159 -50 286.5t-156.5 203.5t-268.5 76q-161 0 -267 -76
t-156 -203.5t-50 -286.5t50 -287t156 -204t267 -76q162 0 268.5 76zM467 1827h136l170 -175l170 175h137l-307 -316z" />
    <glyph glyph-name="uni01D2" unicode="&#x1d2;" horiz-adv-x="1145" 
d="M316 52.5q-112 69.5 -174.5 188t-62.5 261.5q0 141 62.5 259t174.5 186.5t255 68.5t256 -68.5t176 -186.5t63 -259q0 -142 -63 -261t-176 -188.5t-256 -69.5t-255 69.5zM743 180q72 50 109.5 134.5t37.5 187.5q0 102 -37.5 185.5t-109.5 132.5t-172 49
q-99 0 -170.5 -48.5t-108.5 -132t-37 -186.5t37 -188t108.5 -134.5t170.5 -49.5q100 0 172 50zM265 1413h136l170 -175l170 175h137l-307 -316z" />
    <glyph glyph-name="uni01D3" unicode="&#x1d3;" horiz-adv-x="1394" 
d="M308.5 128q-128.5 145 -128.5 409v876h176v-857q0 -200 80 -301t260 -101q181 0 261.5 101.5t80.5 304.5v853h176v-866q0 -269 -129 -416.5t-389 -147.5q-259 0 -387.5 145zM389 1827h136l170 -175l170 175h137l-307 -316z" />
    <glyph glyph-name="uni01D4" unicode="&#x1d4;" horiz-adv-x="1136" 
d="M297.5 35.5q-78.5 52.5 -116.5 142t-40 200.5v621h168v-591q0 -126 59 -197t171 -71q122 0 191.5 72.5t69.5 210.5v576h168v-999h-168v152q-49 -83 -131 -126t-176 -43q-117 0 -195.5 52.5zM260 1413h136l170 -175l170 175h137l-307 -316z" />
    <glyph glyph-name="uni01D5" unicode="&#x1d5;" horiz-adv-x="1394" 
d="M308.5 128q-128.5 145 -128.5 409v876h176v-857q0 -200 80 -301t260 -101q181 0 261.5 101.5t80.5 304.5v853h176v-866q0 -269 -129 -416.5t-389 -147.5q-259 0 -387.5 145zM435 1827h144v-212h-144v212zM809 1827h144v-212h-144v212zM420 2125h552v-103h-552v103z" />
    <glyph glyph-name="uni01D6" unicode="&#x1d6;" horiz-adv-x="1136" 
d="M297.5 35.5q-78.5 52.5 -116.5 142t-40 200.5v621h168v-591q0 -126 59 -197t171 -71q122 0 191.5 72.5t69.5 210.5v576h168v-999h-168v152q-49 -83 -131 -126t-176 -43q-117 0 -195.5 52.5zM306 1413h144v-212h-144v212zM680 1413h144v-212h-144v212zM291 1712h552v-103
h-552v103z" />
    <glyph glyph-name="uni01D7" unicode="&#x1d7;" horiz-adv-x="1394" 
d="M308.5 128q-128.5 145 -128.5 409v876h176v-857q0 -200 80 -301t260 -101q181 0 261.5 101.5t80.5 304.5v853h176v-866q0 -269 -129 -416.5t-389 -147.5q-259 0 -387.5 145zM435 1827h144v-212h-144v212zM809 1827h144v-212h-144v212zM833 2240h181l-275 -287h-127z" />
    <glyph glyph-name="uni01D8" unicode="&#x1d8;" horiz-adv-x="1136" 
d="M297.5 35.5q-78.5 52.5 -116.5 142t-40 200.5v621h168v-591q0 -126 59 -197t171 -71q122 0 191.5 72.5t69.5 210.5v576h168v-999h-168v152q-49 -83 -131 -126t-176 -43q-117 0 -195.5 52.5zM306 1413h144v-212h-144v212zM680 1413h144v-212h-144v212zM704 1827h181
l-275 -287h-127z" />
    <glyph glyph-name="uni01D9" unicode="&#x1d9;" horiz-adv-x="1394" 
d="M308.5 128q-128.5 145 -128.5 409v876h176v-857q0 -200 80 -301t260 -101q181 0 261.5 101.5t80.5 304.5v853h176v-866q0 -269 -129 -416.5t-389 -147.5q-259 0 -387.5 145zM435 1827h144v-212h-144v212zM809 1827h144v-212h-144v212zM389 2240h136l170 -175l170 175h137
l-307 -316z" />
    <glyph glyph-name="uni01DA" unicode="&#x1da;" horiz-adv-x="1136" 
d="M297.5 35.5q-78.5 52.5 -116.5 142t-40 200.5v621h168v-591q0 -126 59 -197t171 -71q122 0 191.5 72.5t69.5 210.5v576h168v-999h-168v152q-49 -83 -131 -126t-176 -43q-117 0 -195.5 52.5zM306 1413h144v-212h-144v212zM680 1413h144v-212h-144v212zM260 1827h136
l170 -175l170 175h137l-307 -316z" />
    <glyph glyph-name="uni01DB" unicode="&#x1db;" horiz-adv-x="1394" 
d="M308.5 128q-128.5 145 -128.5 409v876h176v-857q0 -200 80 -301t260 -101q181 0 261.5 101.5t80.5 304.5v853h176v-866q0 -269 -129 -416.5t-389 -147.5q-259 0 -387.5 145zM435 1827h144v-212h-144v212zM809 1827h144v-212h-144v212zM372 2240h182l221 -300h-127z" />
    <glyph glyph-name="uni01DC" unicode="&#x1dc;" horiz-adv-x="1136" 
d="M297.5 35.5q-78.5 52.5 -116.5 142t-40 200.5v621h168v-591q0 -126 59 -197t171 -71q122 0 191.5 72.5t69.5 210.5v576h168v-999h-168v152q-49 -83 -131 -126t-176 -43q-117 0 -195.5 52.5zM306 1413h144v-212h-144v212zM680 1413h144v-212h-144v212zM243 1827h182
l221 -300h-127z" />
    <glyph glyph-name="uni01DD" unicode="&#x1dd;" horiz-adv-x="1072" 
d="M769 948q108 -68 163 -184.5t55 -259.5q0 -141 -53 -260t-157.5 -190t-251.5 -71q-157 0 -256.5 72t-143.5 180.5t-44 222.5q0 27 2.5 53.5t5.5 38.5h719q-10 147 -86.5 229.5t-214.5 82.5q-84 0 -149 -27.5t-126 -92.5l-118 103q83 89 177.5 130t216.5 41q153 0 261 -68
zM249 426q0 -43 4 -63q9 -65 42.5 -118.5t92 -86t138.5 -32.5q123 0 195 81.5t87 218.5h-559z" />
    <glyph glyph-name="uni01EB" unicode="&#x1eb;" horiz-adv-x="1145" 
d="M579.5 -56q-50.5 -33 -86 -80t-35.5 -102q0 -109 105 -109q43 0 75 18t59 55l87 -60q-81 -120 -217 -120q-63 0 -111 24t-75 68t-27 103q0 83 51 146.5t115 97.5q-129 13 -229.5 84.5t-156 185t-55.5 247.5q0 141 62.5 259t174.5 186.5t255 68.5t256 -68.5t176 -186.5
t63 -259q0 -124 -48.5 -231t-136.5 -180t-203 -97q-48 -17 -98.5 -50zM292 314q37 -85 108.5 -134.5t170.5 -49.5q100 0 172 50t109.5 134.5t37.5 187.5q0 102 -37.5 185.5t-109.5 132.5t-172 49q-99 0 -170.5 -48.5t-108.5 -132t-37 -186.5t37 -188z" />
    <glyph glyph-name="uni01F1" unicode="&#x1f1;" horiz-adv-x="2714" 
d="M210 1413h391q235 0 397 -83t245 -243.5t83 -390.5q0 -220 -84.5 -376t-247.5 -238t-395 -82h-389v1413zM582 162q275 0 421.5 132t146.5 409q0 281 -134 414.5t-418 133.5h-212v-1089h196zM2622 1280l-879 -1120h877v-160h-1119v128l882 1123h-836v162h1075v-133z" />
    <glyph glyph-name="uni01F2" unicode="&#x1f2;" horiz-adv-x="2432" 
d="M210 1413h391q235 0 397 -83t245 -243.5t83 -390.5q0 -220 -84.5 -376t-247.5 -238t-395 -82h-389v1413zM582 162q275 0 421.5 132t146.5 409q0 281 -134 414.5t-418 133.5h-212v-1089h196zM2356 870l-619 -727h615v-143h-844v119l635 737h-603v143h816v-129z" />
    <glyph glyph-name="uni01F3" unicode="&#x1f3;" horiz-adv-x="2187" 
d="M294 52.5q-100 69.5 -154 187.5t-54 260q0 141 53.5 259t153 187.5t231.5 69.5q107 0 196.5 -52t137.5 -145v594h172v-1413h-158l-7 189q-48 -98 -138.5 -152t-199.5 -54q-133 0 -233 69.5zM731 184q69 47 105 129.5t36 186.5q0 103 -36 185.5t-105 129.5t-164 47
t-165 -47.5t-107 -130t-37 -184.5q0 -103 37 -185.5t107 -130t165 -47.5t164 47zM2111 870l-619 -727h615v-143h-844v119l635 737h-603v143h816v-129z" />
    <glyph glyph-name="Oslashacute" unicode="&#x1fe;" horiz-adv-x="1548" 
d="M1374 1039.5q60 -152.5 60 -332.5q0 -199 -73.5 -363.5t-222 -262.5t-365.5 -98q-190 0 -333 80l-39 -63h-129l77 125q-116 99 -175 251t-59 331q0 199 73 363t221 262t364 98q190 0 332 -78l38 61h129l-76 -123q118 -98 178 -250.5zM334.5 462q34.5 -112 105.5 -189
l579 939q-103 61 -246 61q-161 0 -267 -76t-156 -203.5t-50 -286.5q0 -133 34.5 -245zM1041.5 216q106.5 76 156.5 203.5t50 287.5q0 134 -35.5 246.5t-107.5 188.5l-579 -939q104 -63 247 -63q162 0 268.5 76zM911 1827h181l-275 -287h-127z" />
    <glyph glyph-name="oslashacute" unicode="&#x1ff;" horiz-adv-x="1145" 
d="M1015.5 737q50.5 -108 50.5 -235q0 -142 -63 -261t-176 -188.5t-256 -69.5q-130 0 -236 59l-26 -42h-91l52 85q-90 71 -140.5 180t-50.5 237q0 141 62.5 259t174.5 186.5t255 68.5q130 0 238 -58l25 41h91l-51 -83q91 -71 141.5 -179zM280 344q25 -73 73 -124l376 609
q-68 40 -158 40q-99 0 -170.5 -48.5t-108.5 -132t-37 -186.5q0 -85 25 -158zM743 180q72 50 109.5 134.5t37.5 187.5q0 84 -25.5 156.5t-74.5 122.5l-376 -610q69 -41 157 -41q100 0 172 50zM710 1413h181l-275 -287h-127z" />
    <glyph glyph-name="uni0218" unicode="&#x218;" horiz-adv-x="1145" 
d="M354 32q-108 46 -181 135.5t-94 215.5l174 44q18 -138 109.5 -211t227.5 -73q87 0 152.5 31t100.5 85t35 122q0 75 -43 127t-106 84.5t-172 75.5q-128 50 -205 92t-131.5 115.5t-54.5 184.5q0 112 55 196t149.5 129t208.5 45q134 0 238.5 -57.5t171.5 -176.5l-146 -90
q-90 167 -270 167q-65 0 -117.5 -26.5t-83 -73t-30.5 -105.5q0 -66 40 -111.5t99.5 -75.5t163.5 -70q132 -51 213 -95t138.5 -122.5t57.5 -197.5q0 -122 -61.5 -215t-168 -144t-237.5 -51q-125 0 -233 46zM492 -111h178l-241 -340h-104z" />
    <glyph glyph-name="uni0219" unicode="&#x219;" horiz-adv-x="922" 
d="M283 18q-84 35 -143 96.5t-84 137.5l137 60q29 -80 96 -133.5t169 -53.5q67 0 114 21.5t70.5 58.5t23.5 82q0 50 -30.5 80.5t-76.5 47.5t-127 37q-103 26 -166.5 51.5t-108.5 80t-45 146.5q0 91 47 155.5t127 97.5t178 33q120 0 212.5 -55t147.5 -156l-131 -71
q-36 66 -94.5 106.5t-140.5 40.5q-84 0 -134 -36t-50 -93q0 -44 29 -71.5t73 -44t120 -36.5q107 -29 174 -57.5t115 -88t48 -159.5q0 -101 -50 -171.5t-133.5 -105.5t-183.5 -35q-99 0 -183 35zM419 -111h178l-241 -340h-104z" />
    <glyph glyph-name="uni021A" unicode="&#x21a;" horiz-adv-x="1228" 
d="M526 1255h-476v158h1128v-158h-476v-1255h-176v1255zM541 -111h178l-241 -340h-104z" />
    <glyph glyph-name="uni021B" unicode="&#x21b;" horiz-adv-x="720" 
d="M277 60.5q-74 77.5 -74 218.5v577h-165v143h167v276l167 122v-398h270v-143h-270v-549q0 -92 36.5 -133t108.5 -41q32 0 65.5 8.5t58.5 19.5l1 -154q-26 -10 -68 -17t-86 -7q-137 0 -211 77.5zM410 -111h178l-241 -340h-104z" />
    <glyph glyph-name="uni0237" unicode="&#x237;" horiz-adv-x="511" 
d="M-16.5 -425.5q-46.5 9.5 -81.5 22.5l44 148q28 -12 57 -19t49 -7q61 0 90 36.5t29 113.5v1130h170v-1118q0 -145 -68.5 -230.5t-204.5 -85.5q-38 0 -84.5 9.5z" />
    <glyph glyph-name="uni0250" unicode="&#x250;" 
d="M819 287l130 -94q-76 -104 -172 -157t-228 -53q-129 0 -221.5 49.5t-140.5 141.5t-48 216v609h141l11 -178q51 94 145 144.5t201 50.5q102 0 181.5 -37.5t124.5 -108t45 -167.5q0 -149 -108.5 -217.5t-303.5 -68.5h-283q1 -100 25 -162.5t79.5 -93t149.5 -30.5
q171 0 272 156zM400.5 797.5q-81.5 -73.5 -107.5 -191.5v-65h273q123 0 185.5 45t62.5 123q0 74 -55 118t-155 44q-122 0 -203.5 -73.5z" />
    <glyph glyph-name="uni0254" unicode="&#x254;" horiz-adv-x="1012" 
d="M219.5 57.5q-105.5 74.5 -152.5 208.5l154 58q27 -86 93 -136.5t155 -50.5q96 0 160.5 49.5t95.5 131.5t31 180q0 97 -31 180t-96 133.5t-160 50.5q-88 0 -154.5 -51t-96.5 -139l-161 63q55 138 162.5 209.5t249.5 71.5q148 0 251.5 -72.5t155.5 -191t52 -254.5
q0 -141 -54 -258.5t-158 -187t-249 -69.5q-142 0 -247.5 74.5z" />
    <glyph glyph-name="uni0258" unicode="&#x258;" horiz-adv-x="1072" 
d="M291.5 24q-94.5 41 -177.5 130l118 103q61 -65 126 -92.5t149 -27.5q138 0 214.5 82.5t86.5 229.5h-719q-3 12 -5.5 38.5t-2.5 53.5q0 114 44 222.5t143.5 180.5t256.5 72q147 0 251.5 -71t157.5 -190t53 -260q0 -143 -55 -259.5t-163 -184.5t-261 -68q-122 0 -216.5 41z
M721 791.5q-72 81.5 -195 81.5q-80 0 -138.5 -32.5t-92 -86t-42.5 -118.5q-4 -20 -4 -63h559q-15 137 -87 218.5z" />
    <glyph glyph-name="uni0259" unicode="&#x259;" horiz-adv-x="1072" 
d="M769 948q108 -68 163 -184.5t55 -259.5q0 -141 -53 -260t-157.5 -190t-251.5 -71q-157 0 -256.5 72t-143.5 180.5t-44 222.5q0 27 2.5 53.5t5.5 38.5h719q-10 147 -86.5 229.5t-214.5 82.5q-84 0 -149 -27.5t-126 -92.5l-118 103q83 89 177.5 130t216.5 41q153 0 261 -68
zM249 426q0 -43 4 -63q9 -65 42.5 -118.5t92 -86t138.5 -32.5q123 0 195 81.5t87 218.5h-559z" />
    <glyph glyph-name="uni0261" unicode="&#x261;" horiz-adv-x="1189" 
d="M296 -405.5q-109 64.5 -174 175.5l129 94q39 -81 119.5 -133t188.5 -52q89 0 154.5 39t101.5 115.5t36 186.5v175q-48 -94 -136 -146t-195 -52q-133 0 -233 69t-154 185.5t-54 255.5q0 138 53.5 254.5t153.5 185.5t231 69q107 0 196.5 -52t137.5 -145v180h171v-979
q0 -151 -57 -261.5t-162 -169.5t-247 -59q-151 0 -260 64.5zM724 200q69 46 105 126t36 181q0 100 -36.5 181t-105.5 127.5t-163 46.5q-95 0 -165 -47t-107 -128t-37 -180q0 -100 37 -180t107 -126.5t165 -46.5t164 46z" />
    <glyph glyph-name="circumflex" unicode="&#x2c6;" horiz-adv-x="694" 
d="M346 1438l307 -330h-136l-171 182l-169 -182h-137z" />
    <glyph glyph-name="caron" unicode="&#x2c7;" horiz-adv-x="699" 
d="M44 1413h136l170 -175l170 175h137l-307 -316z" />
    <glyph glyph-name="uni02D0" unicode="&#x2d0;" horiz-adv-x="573" 
d="M52 999l461 16l-218 -445zM279 429l243 -429l-462 -16z" />
    <glyph glyph-name="uni02D1" unicode="&#x2d1;" horiz-adv-x="584" 
d="M57 664l462 16l-219 -447z" />
    <glyph glyph-name="breve" unicode="&#x2d8;" horiz-adv-x="842" 
d="M189.5 1214q-76.5 68 -76.5 199h121q0 -80 50 -122t137 -42q88 0 137.5 42t49.5 122h121q0 -132 -78 -199.5t-230 -67.5q-155 0 -231.5 68z" />
    <glyph glyph-name="dotaccent" unicode="&#x2d9;" horiz-adv-x="504" 
d="M163 1413h178v-212h-178v212z" />
    <glyph glyph-name="ring" unicode="&#x2da;" horiz-adv-x="638" 
d="M215 1114q-47 28 -74.5 75.5t-27.5 103.5t27.5 103t74.5 74.5t103 27.5q55 0 103 -27.5t76 -74.5t28 -103q0 -57 -27.5 -104.5t-75 -75t-104.5 -27.5q-56 0 -103 28zM399 1212.5q32 32.5 32 81.5q0 47 -31.5 78.5t-81.5 31.5q-48 0 -79.5 -31.5t-31.5 -78.5
q0 -49 32 -81.5t79 -32.5q49 0 81 32.5z" />
    <glyph glyph-name="ogonek" unicode="&#x2db;" horiz-adv-x="602" 
d="M208 -430q-48 24 -75 68t-27 103q0 70 37.5 127t87 92t84.5 43l134 -3q-46 -13 -102 -46t-96.5 -83t-40.5 -109q0 -109 105 -109q43 0 75 18t59 55l87 -60q-81 -120 -217 -120q-63 0 -111 24z" />
    <glyph glyph-name="tilde" unicode="&#x2dc;" horiz-adv-x="898" 
d="M509.5 1162q-31.5 14 -52.5 34t-47 51q-28 34 -48.5 50.5t-48.5 16.5q-42 0 -66.5 -40t-24.5 -113h-100q0 123 52 191.5t143 68.5q55 0 90.5 -25t74.5 -71q30 -35 52 -52.5t52 -17.5q37 0 60.5 42.5t23.5 115.5h103q0 -124 -51 -194.5t-138 -70.5q-43 0 -74.5 14z" />
    <glyph glyph-name="hungarumlaut" unicode="&#x2dd;" horiz-adv-x="870" 
d="M282 1413h154l-248 -314h-127zM640 1413h181l-275 -314h-127z" />
    <glyph glyph-name="uni02F5" unicode="&#x2f5;" horiz-adv-x="1108" 
d="M132 999h181l224 -312h-127zM555 999h182l228 -312h-128z" />
    <glyph glyph-name="uni02F6" unicode="&#x2f6;" horiz-adv-x="1108" 
d="M143 687l228 312h182l-282 -312h-128zM571 687l224 312h181l-278 -312h-127z" />
    <glyph glyph-name="gravecomb" unicode="&#x300;" horiz-adv-x="0" 
d="M-463 1413h182l221 -300h-127z" />
    <glyph glyph-name="acutecomb" unicode="&#x301;" horiz-adv-x="0" 
d="M-232 1413h181l-275 -287h-127z" />
    <glyph glyph-name="uni0302" unicode="&#x302;" horiz-adv-x="0" 
d="M-348 1438l307 -330h-136l-171 182l-169 -182h-137z" />
    <glyph glyph-name="tildecomb" unicode="&#x303;" horiz-adv-x="0" 
d="M-388.5 1162q-31.5 14 -52.5 34t-47 51q-28 34 -48.5 50.5t-48.5 16.5q-42 0 -66.5 -40t-24.5 -113h-100q0 123 52 191.5t143 68.5q55 0 90.5 -25t74.5 -71q30 -35 52 -52.5t52 -17.5q37 0 60.5 42.5t23.5 115.5h103q0 -124 -51 -194.5t-138 -70.5q-43 0 -74.5 14z" />
    <glyph glyph-name="uni0304" unicode="&#x304;" horiz-adv-x="0" 
d="M-711 1298h552v-103h-552v103z" />
    <glyph glyph-name="uni0306" unicode="&#x306;" horiz-adv-x="0" 
d="M-652.5 1214q-76.5 68 -76.5 199h121q0 -80 50 -122t137 -42q88 0 137.5 42t49.5 122h121q0 -132 -78 -199.5t-230 -67.5q-155 0 -231.5 68z" />
    <glyph glyph-name="uni0307" unicode="&#x307;" horiz-adv-x="0" 
d="M-341 1413h178v-212h-178v212z" />
    <glyph glyph-name="uni0308" unicode="&#x308;" horiz-adv-x="0" 
d="M-681 1413h144v-212h-144v212zM-307 1413h144v-212h-144v212z" />
    <glyph glyph-name="uni030A" unicode="&#x30a;" horiz-adv-x="0" 
d="M-423 1114q-47 28 -74.5 75.5t-27.5 103.5t27.5 103t74.5 74.5t103 27.5q55 0 103 -27.5t76 -74.5t28 -103q0 -57 -27.5 -104.5t-75 -75t-104.5 -27.5q-56 0 -103 28zM-239 1212.5q32 32.5 32 81.5q0 47 -31.5 78.5t-81.5 31.5q-48 0 -79.5 -31.5t-31.5 -78.5
q0 -49 32 -81.5t79 -32.5q49 0 81 32.5z" />
    <glyph glyph-name="uni030B" unicode="&#x30b;" horiz-adv-x="0" 
d="M-588 1413h154l-248 -314h-127zM-230 1413h181l-275 -314h-127z" />
    <glyph glyph-name="uni030C" unicode="&#x30c;" horiz-adv-x="0" 
d="M-655 1413h136l170 -175l170 175h137l-307 -316z" />
    <glyph glyph-name="uni030F" unicode="&#x30f;" horiz-adv-x="0" 
d="M-546 1099l-275 314h181l221 -314h-127zM-188 1099l-248 314h154l221 -314h-127z" />
    <glyph glyph-name="uni0312" unicode="&#x312;" horiz-adv-x="0" 
d="M-256 1123h-178l241 304h104z" />
    <glyph glyph-name="uni031B" unicode="&#x31b;" horiz-adv-x="0" 
d="M-412 1118q86 0 123 52.5t37 138.5v104h130v-92q0 -146 -71.5 -231t-218.5 -85v113z" />
    <glyph glyph-name="uni0326" unicode="&#x326;" horiz-adv-x="0" 
d="M-234 -111h178l-241 -340h-104z" />
    <glyph glyph-name="uni0327" unicode="&#x327;" horiz-adv-x="0" 
d="M-436.5 -479.5q-55.5 38.5 -72.5 110.5l95 40q12 -38 41 -63.5t68 -25.5q50 0 79.5 27t29.5 74q0 53 -47.5 86.5t-129.5 37.5l-81 1l115 191h103l-80 -121q37 -3 61 -10q78 -18 119.5 -64.5t41.5 -115.5q0 -59 -27.5 -106t-76 -73.5t-111.5 -26.5q-72 0 -127.5 38.5z" />
    <glyph glyph-name="uni0328" unicode="&#x328;" horiz-adv-x="0" 
d="M-394 -430q-48 24 -75 68t-27 103q0 70 37.5 127t87 92t84.5 43l134 -3q-46 -13 -102 -46t-96.5 -83t-40.5 -109q0 -109 105 -109q43 0 75 18t59 55l87 -60q-81 -120 -217 -120q-63 0 -111 24z" />
    <glyph glyph-name="uni0337" unicode="&#x337;" horiz-adv-x="0" 
d="M-644 469l606 685v-189l-606 -686v190z" />
    <glyph glyph-name="tonos" unicode="&#x384;" horiz-adv-x="443" 
d="M197 1413h140l-120 -287h-85z" />
    <glyph glyph-name="dieresistonos" unicode="&#x385;" horiz-adv-x="674" 
d="M67 1413h144v-212h-144v212zM441 1413h144v-212h-144v212zM343 1827h140l-120 -287h-85z" />
    <glyph glyph-name="uni03BC" unicode="&#x3bc;" horiz-adv-x="1293" 
d="M253 999h168v-591q0 -126 59 -197t171 -71q121 0 190.5 72.5t69.5 210.5v576h168v-999h-168v152q-49 -83 -131 -126t-176 -43q-145 0 -214 94v-418h-137v1340z" />
    <glyph glyph-name="pi" unicode="&#x3c0;" horiz-adv-x="1051" 
d="M712 83.5q-59 100.5 -59 288.5v484h-322v-856h-143v856h-97v143h805v-143h-99v-462q0 -149 25 -216.5t72 -67.5q31 0 61 16l45 -114q-54 -29 -117 -29q-112 0 -171 100.5z" />
    <glyph glyph-name="uni0483" unicode="&#x483;" horiz-adv-x="0" 
d="M-971 1871h665v139h174v-301h-670v-144h-169v306z" />
    <glyph glyph-name="Wgrave" unicode="&#x1e80;" horiz-adv-x="1987" 
d="M61 1413h183l329 -1158l351 1080h140l350 -1080l329 1158h183l-413 -1413h-174l-345 1057l-345 -1057h-175zM673 1816h182l221 -300h-127z" />
    <glyph glyph-name="wgrave" unicode="&#x1e81;" horiz-adv-x="1479" 
d="M40 999h181l202 -742l242 742h150l241 -741l204 741h181l-298 -999h-156l-247 763l-248 -763h-156zM419 1413h182l221 -300h-127z" />
    <glyph glyph-name="Wacute" unicode="&#x1e82;" horiz-adv-x="1987" 
d="M61 1413h183l329 -1158l351 1080h140l350 -1080l329 1158h183l-413 -1413h-174l-345 1057l-345 -1057h-175zM1134 1816h181l-275 -287h-127z" />
    <glyph glyph-name="wacute" unicode="&#x1e83;" horiz-adv-x="1479" 
d="M40 999h181l202 -742l242 742h150l241 -741l204 741h181l-298 -999h-156l-247 763l-248 -763h-156zM880 1413h181l-275 -287h-127z" />
    <glyph glyph-name="Wdieresis" unicode="&#x1e84;" horiz-adv-x="1987" 
d="M61 1413h183l329 -1158l351 1080h140l350 -1080l329 1158h183l-413 -1413h-174l-345 1057l-345 -1057h-175zM736 1816h144v-212h-144v212zM1110 1816h144v-212h-144v212z" />
    <glyph glyph-name="wdieresis" unicode="&#x1e85;" horiz-adv-x="1479" 
d="M40 999h181l202 -742l242 742h150l241 -741l204 741h181l-298 -999h-156l-247 763l-248 -763h-156zM482 1413h144v-212h-144v212zM856 1413h144v-212h-144v212z" />
    <glyph glyph-name="uni1EA4" unicode="&#x1ea4;" horiz-adv-x="1315" 
d="M588 1413h140l538 -1413h-191l-118 330h-595l-120 -330h-192zM902 481l-243 680l-242 -680h485zM655 1852l307 -330h-136l-171 182l-169 -182h-137zM794 2239h181l-275 -287h-127z" />
    <glyph glyph-name="uni1EA5" unicode="&#x1ea5;" 
d="M732.5 966.5q92.5 -49.5 140.5 -141.5t48 -216v-609h-141l-11 178q-51 -94 -145 -144.5t-201 -50.5q-102 0 -181.5 37.5t-124.5 108t-45 167.5q0 149 108.5 217.5t303.5 68.5h283q-1 100 -25 162.5t-79.5 93t-149.5 30.5q-171 0 -272 -156l-130 94q76 104 172 157t228 53
q129 0 221.5 -49.5zM659.5 201.5q81.5 73.5 107.5 191.5v65h-273q-123 0 -185.5 -45t-62.5 -123q0 -74 55 -118t155 -44q122 0 203.5 73.5zM506 1438l307 -330h-136l-171 182l-169 -182h-137zM646 1825h181l-275 -287h-127z" />
    <glyph glyph-name="uni1EA6" unicode="&#x1ea6;" horiz-adv-x="1315" 
d="M588 1413h140l538 -1413h-191l-118 330h-595l-120 -330h-192zM902 481l-243 680l-242 -680h485zM655 1852l307 -330h-136l-171 182l-169 -182h-137zM333 2239h182l221 -300h-127z" />
    <glyph glyph-name="uni1EA7" unicode="&#x1ea7;" 
d="M732.5 966.5q92.5 -49.5 140.5 -141.5t48 -216v-609h-141l-11 178q-51 -94 -145 -144.5t-201 -50.5q-102 0 -181.5 37.5t-124.5 108t-45 167.5q0 149 108.5 217.5t303.5 68.5h283q-1 100 -25 162.5t-79.5 93t-149.5 30.5q-171 0 -272 -156l-130 94q76 104 172 157t228 53
q129 0 221.5 -49.5zM659.5 201.5q81.5 73.5 107.5 191.5v65h-273q-123 0 -185.5 -45t-62.5 -123q0 -74 55 -118t155 -44q122 0 203.5 73.5zM506 1438l307 -330h-136l-171 182l-169 -182h-137zM185 1825h182l221 -300h-127z" />
    <glyph glyph-name="uni1EAA" unicode="&#x1eaa;" horiz-adv-x="1315" 
d="M588 1413h140l538 -1413h-191l-118 330h-595l-120 -330h-192zM902 481l-243 680l-242 -680h485zM655 1852l307 -330h-136l-171 182l-169 -182h-137zM717.5 1974q-31.5 14 -52.5 34t-47 51q-28 34 -48.5 50.5t-48.5 16.5q-42 0 -66.5 -40t-24.5 -113h-100q0 123 52 191.5
t143 68.5q55 0 90.5 -25t74.5 -71q30 -35 52 -52.5t52 -17.5q37 0 60.5 42.5t23.5 115.5h103q0 -124 -51 -194.5t-138 -70.5q-43 0 -74.5 14z" />
    <glyph glyph-name="uni1EAB" unicode="&#x1eab;" 
d="M732.5 966.5q92.5 -49.5 140.5 -141.5t48 -216v-609h-141l-11 178q-51 -94 -145 -144.5t-201 -50.5q-102 0 -181.5 37.5t-124.5 108t-45 167.5q0 149 108.5 217.5t303.5 68.5h283q-1 100 -25 162.5t-79.5 93t-149.5 30.5q-171 0 -272 -156l-130 94q76 104 172 157t228 53
q129 0 221.5 -49.5zM659.5 201.5q81.5 73.5 107.5 191.5v65h-273q-123 0 -185.5 -45t-62.5 -123q0 -74 55 -118t155 -44q122 0 203.5 73.5zM506 1438l307 -330h-136l-171 182l-169 -182h-137zM568.5 1561q-31.5 14 -52.5 34t-47 51q-28 34 -48.5 50.5t-48.5 16.5
q-42 0 -66.5 -40t-24.5 -113h-100q0 123 52 191.5t143 68.5q55 0 90.5 -25t74.5 -71q30 -35 52 -52.5t52 -17.5q37 0 60.5 42.5t23.5 115.5h103q0 -124 -51 -194.5t-138 -70.5q-43 0 -74.5 14z" />
    <glyph glyph-name="uni1EAE" unicode="&#x1eae;" horiz-adv-x="1315" 
d="M588 1413h140l538 -1413h-191l-118 330h-595l-120 -330h-192zM902 481l-243 680l-242 -680h485zM425.5 1628q-76.5 68 -76.5 199h121q0 -80 50 -122t137 -42q88 0 137.5 42t49.5 122h121q0 -132 -78 -199.5t-230 -67.5q-155 0 -231.5 68zM794 2240h181l-275 -287h-127z
" />
    <glyph glyph-name="uni1EAF" unicode="&#x1eaf;" 
d="M732.5 966.5q92.5 -49.5 140.5 -141.5t48 -216v-609h-141l-11 178q-51 -94 -145 -144.5t-201 -50.5q-102 0 -181.5 37.5t-124.5 108t-45 167.5q0 149 108.5 217.5t303.5 68.5h283q-1 100 -25 162.5t-79.5 93t-149.5 30.5q-171 0 -272 -156l-130 94q76 104 172 157t228 53
q129 0 221.5 -49.5zM659.5 201.5q81.5 73.5 107.5 191.5v65h-273q-123 0 -185.5 -45t-62.5 -123q0 -74 55 -118t155 -44q122 0 203.5 73.5zM276.5 1214q-76.5 68 -76.5 199h121q0 -80 50 -122t137 -42q88 0 137.5 42t49.5 122h121q0 -132 -78 -199.5t-230 -67.5
q-155 0 -231.5 68zM646 1827h181l-275 -287h-127z" />
    <glyph glyph-name="uni1EB0" unicode="&#x1eb0;" horiz-adv-x="1315" 
d="M588 1413h140l538 -1413h-191l-118 330h-595l-120 -330h-192zM902 481l-243 680l-242 -680h485zM425.5 1628q-76.5 68 -76.5 199h121q0 -80 50 -122t137 -42q88 0 137.5 42t49.5 122h121q0 -132 -78 -199.5t-230 -67.5q-155 0 -231.5 68zM333 2240h182l221 -300h-127z
" />
    <glyph glyph-name="uni1EB1" unicode="&#x1eb1;" 
d="M732.5 966.5q92.5 -49.5 140.5 -141.5t48 -216v-609h-141l-11 178q-51 -94 -145 -144.5t-201 -50.5q-102 0 -181.5 37.5t-124.5 108t-45 167.5q0 149 108.5 217.5t303.5 68.5h283q-1 100 -25 162.5t-79.5 93t-149.5 30.5q-171 0 -272 -156l-130 94q76 104 172 157t228 53
q129 0 221.5 -49.5zM659.5 201.5q81.5 73.5 107.5 191.5v65h-273q-123 0 -185.5 -45t-62.5 -123q0 -74 55 -118t155 -44q122 0 203.5 73.5zM276.5 1214q-76.5 68 -76.5 199h121q0 -80 50 -122t137 -42q88 0 137.5 42t49.5 122h121q0 -132 -78 -199.5t-230 -67.5
q-155 0 -231.5 68zM185 1827h182l221 -300h-127z" />
    <glyph glyph-name="uni1EB4" unicode="&#x1eb4;" horiz-adv-x="1315" 
d="M588 1413h140l538 -1413h-191l-118 330h-595l-120 -330h-192zM902 481l-243 680l-242 -680h485zM425.5 1628q-76.5 68 -76.5 199h121q0 -80 50 -122t137 -42q88 0 137.5 42t49.5 122h121q0 -132 -78 -199.5t-230 -67.5q-155 0 -231.5 68zM717.5 1976q-31.5 14 -52.5 34
t-47 51q-28 34 -48.5 50.5t-48.5 16.5q-42 0 -66.5 -40t-24.5 -113h-100q0 123 52 191.5t143 68.5q55 0 90.5 -25t74.5 -71q30 -35 52 -52.5t52 -17.5q37 0 60.5 42.5t23.5 115.5h103q0 -124 -51 -194.5t-138 -70.5q-43 0 -74.5 14z" />
    <glyph glyph-name="uni1EB5" unicode="&#x1eb5;" 
d="M732.5 966.5q92.5 -49.5 140.5 -141.5t48 -216v-609h-141l-11 178q-51 -94 -145 -144.5t-201 -50.5q-102 0 -181.5 37.5t-124.5 108t-45 167.5q0 149 108.5 217.5t303.5 68.5h283q-1 100 -25 162.5t-79.5 93t-149.5 30.5q-171 0 -272 -156l-130 94q76 104 172 157t228 53
q129 0 221.5 -49.5zM659.5 201.5q81.5 73.5 107.5 191.5v65h-273q-123 0 -185.5 -45t-62.5 -123q0 -74 55 -118t155 -44q122 0 203.5 73.5zM276.5 1214q-76.5 68 -76.5 199h121q0 -80 50 -122t137 -42q88 0 137.5 42t49.5 122h121q0 -132 -78 -199.5t-230 -67.5
q-155 0 -231.5 68zM568.5 1562q-31.5 14 -52.5 34t-47 51q-28 34 -48.5 50.5t-48.5 16.5q-42 0 -66.5 -40t-24.5 -113h-100q0 123 52 191.5t143 68.5q55 0 90.5 -25t74.5 -71q30 -35 52 -52.5t52 -17.5q37 0 60.5 42.5t23.5 115.5h103q0 -124 -51 -194.5t-138 -70.5
q-43 0 -74.5 14z" />
    <glyph glyph-name="uni1EBC" unicode="&#x1ebc;" horiz-adv-x="1264" 
d="M210 1413h929v-162h-753v-461h685v-163h-685v-460h753v-167h-929v1413zM736.5 1562q-31.5 14 -52.5 34t-47 51q-28 34 -48.5 50.5t-48.5 16.5q-42 0 -66.5 -40t-24.5 -113h-100q0 123 52 191.5t143 68.5q55 0 90.5 -25t74.5 -71q30 -35 52 -52.5t52 -17.5q37 0 60.5 42.5
t23.5 115.5h103q0 -124 -51 -194.5t-138 -70.5q-43 0 -74.5 14z" />
    <glyph glyph-name="uni1EBD" unicode="&#x1ebd;" horiz-adv-x="1072" 
d="M303 51q-108 68 -163 184.5t-55 259.5q0 141 53 260t157.5 190t251.5 71q157 0 256.5 -72t143.5 -180.5t44 -222.5q0 -27 -2.5 -53.5t-5.5 -38.5h-719q10 -147 86.5 -229.5t214.5 -82.5q84 0 149 27.5t126 92.5l118 -103q-83 -89 -177.5 -130t-216.5 -41q-153 0 -261 68z
M823 573q0 43 -4 63q-9 65 -42.5 118.5t-92 86t-138.5 32.5q-123 0 -195 -81.5t-87 -218.5h559zM593.5 1148q-31.5 14 -52.5 34t-47 51q-28 34 -48.5 50.5t-48.5 16.5q-42 0 -66.5 -40t-24.5 -113h-100q0 123 52 191.5t143 68.5q55 0 90.5 -25t74.5 -71q30 -35 52 -52.5
t52 -17.5q37 0 60.5 42.5t23.5 115.5h103q0 -124 -51 -194.5t-138 -70.5q-43 0 -74.5 14z" />
    <glyph glyph-name="uni1EBE" unicode="&#x1ebe;" horiz-adv-x="1264" 
d="M210 1413h929v-162h-753v-461h685v-163h-685v-460h753v-167h-929v1413zM674 1852l307 -330h-136l-171 182l-169 -182h-137zM813 2239h181l-275 -287h-127z" />
    <glyph glyph-name="uni1EBF" unicode="&#x1ebf;" horiz-adv-x="1072" 
d="M303 51q-108 68 -163 184.5t-55 259.5q0 141 53 260t157.5 190t251.5 71q157 0 256.5 -72t143.5 -180.5t44 -222.5q0 -27 -2.5 -53.5t-5.5 -38.5h-719q10 -147 86.5 -229.5t214.5 -82.5q84 0 149 27.5t126 92.5l118 -103q-83 -89 -177.5 -130t-216.5 -41q-153 0 -261 68z
M823 573q0 43 -4 63q-9 65 -42.5 118.5t-92 86t-138.5 32.5q-123 0 -195 -81.5t-87 -218.5h559zM531 1438l307 -330h-136l-171 182l-169 -182h-137zM670 1825h181l-275 -287h-127z" />
    <glyph glyph-name="uni1EC0" unicode="&#x1ec0;" horiz-adv-x="1264" 
d="M210 1413h929v-162h-753v-461h685v-163h-685v-460h753v-167h-929v1413zM674 1852l307 -330h-136l-171 182l-169 -182h-137zM352 2239h182l221 -300h-127z" />
    <glyph glyph-name="uni1EC1" unicode="&#x1ec1;" horiz-adv-x="1072" 
d="M303 51q-108 68 -163 184.5t-55 259.5q0 141 53 260t157.5 190t251.5 71q157 0 256.5 -72t143.5 -180.5t44 -222.5q0 -27 -2.5 -53.5t-5.5 -38.5h-719q10 -147 86.5 -229.5t214.5 -82.5q84 0 149 27.5t126 92.5l118 -103q-83 -89 -177.5 -130t-216.5 -41q-153 0 -261 68z
M823 573q0 43 -4 63q-9 65 -42.5 118.5t-92 86t-138.5 32.5q-123 0 -195 -81.5t-87 -218.5h559zM531 1438l307 -330h-136l-171 182l-169 -182h-137zM209 1825h182l221 -300h-127z" />
    <glyph glyph-name="uni1EC4" unicode="&#x1ec4;" horiz-adv-x="1264" 
d="M210 1413h929v-162h-753v-461h685v-163h-685v-460h753v-167h-929v1413zM674 1852l307 -330h-136l-171 182l-169 -182h-137zM736.5 1974q-31.5 14 -52.5 34t-47 51q-28 34 -48.5 50.5t-48.5 16.5q-42 0 -66.5 -40t-24.5 -113h-100q0 123 52 191.5t143 68.5q55 0 90.5 -25
t74.5 -71q30 -35 52 -52.5t52 -17.5q37 0 60.5 42.5t23.5 115.5h103q0 -124 -51 -194.5t-138 -70.5q-43 0 -74.5 14z" />
    <glyph glyph-name="uni1EC5" unicode="&#x1ec5;" horiz-adv-x="1072" 
d="M303 51q-108 68 -163 184.5t-55 259.5q0 141 53 260t157.5 190t251.5 71q157 0 256.5 -72t143.5 -180.5t44 -222.5q0 -27 -2.5 -53.5t-5.5 -38.5h-719q10 -147 86.5 -229.5t214.5 -82.5q84 0 149 27.5t126 92.5l118 -103q-83 -89 -177.5 -130t-216.5 -41q-153 0 -261 68z
M823 573q0 43 -4 63q-9 65 -42.5 118.5t-92 86t-138.5 32.5q-123 0 -195 -81.5t-87 -218.5h559zM531 1438l307 -330h-136l-171 182l-169 -182h-137zM593.5 1561q-31.5 14 -52.5 34t-47 51q-28 34 -48.5 50.5t-48.5 16.5q-42 0 -66.5 -40t-24.5 -113h-100q0 123 52 191.5
t143 68.5q55 0 90.5 -25t74.5 -71q30 -35 52 -52.5t52 -17.5q37 0 60.5 42.5t23.5 115.5h103q0 -124 -51 -194.5t-138 -70.5q-43 0 -74.5 14z" />
    <glyph glyph-name="uni1ED0" unicode="&#x1ed0;" horiz-adv-x="1548" 
d="M409 81q-148 98 -221 262.5t-73 363.5t73 363t221 262t364 98q217 0 365.5 -98t222 -262t73.5 -363t-73.5 -363.5t-222 -262.5t-365.5 -98q-216 0 -364 98zM1041.5 216q106.5 76 156.5 203.5t50 287.5q0 159 -50 286.5t-156.5 203.5t-268.5 76q-161 0 -267 -76
t-156 -203.5t-50 -286.5t50 -287t156 -204t267 -76q162 0 268.5 76zM772 1852l307 -330h-136l-171 182l-169 -182h-137zM911 2239h181l-275 -287h-127z" />
    <glyph glyph-name="uni1ED1" unicode="&#x1ed1;" horiz-adv-x="1145" 
d="M316 52.5q-112 69.5 -174.5 188t-62.5 261.5q0 141 62.5 259t174.5 186.5t255 68.5t256 -68.5t176 -186.5t63 -259q0 -142 -63 -261t-176 -188.5t-256 -69.5t-255 69.5zM743 180q72 50 109.5 134.5t37.5 187.5q0 102 -37.5 185.5t-109.5 132.5t-172 49
q-99 0 -170.5 -48.5t-108.5 -132t-37 -186.5t37 -188t108.5 -134.5t170.5 -49.5q100 0 172 50zM571 1438l307 -330h-136l-171 182l-169 -182h-137zM710 1825h181l-275 -287h-127z" />
    <glyph glyph-name="uni1ED2" unicode="&#x1ed2;" horiz-adv-x="1548" 
d="M409 81q-148 98 -221 262.5t-73 363.5t73 363t221 262t364 98q217 0 365.5 -98t222 -262t73.5 -363t-73.5 -363.5t-222 -262.5t-365.5 -98q-216 0 -364 98zM1041.5 216q106.5 76 156.5 203.5t50 287.5q0 159 -50 286.5t-156.5 203.5t-268.5 76q-161 0 -267 -76
t-156 -203.5t-50 -286.5t50 -287t156 -204t267 -76q162 0 268.5 76zM772 1852l307 -330h-136l-171 182l-169 -182h-137zM450 2239h182l221 -300h-127z" />
    <glyph glyph-name="uni1ED3" unicode="&#x1ed3;" horiz-adv-x="1145" 
d="M316 52.5q-112 69.5 -174.5 188t-62.5 261.5q0 141 62.5 259t174.5 186.5t255 68.5t256 -68.5t176 -186.5t63 -259q0 -142 -63 -261t-176 -188.5t-256 -69.5t-255 69.5zM743 180q72 50 109.5 134.5t37.5 187.5q0 102 -37.5 185.5t-109.5 132.5t-172 49
q-99 0 -170.5 -48.5t-108.5 -132t-37 -186.5t37 -188t108.5 -134.5t170.5 -49.5q100 0 172 50zM571 1438l307 -330h-136l-171 182l-169 -182h-137zM249 1825h182l221 -300h-127z" />
    <glyph glyph-name="uni1ED6" unicode="&#x1ed6;" horiz-adv-x="1548" 
d="M409 81q-148 98 -221 262.5t-73 363.5t73 363t221 262t364 98q217 0 365.5 -98t222 -262t73.5 -363t-73.5 -363.5t-222 -262.5t-365.5 -98q-216 0 -364 98zM1041.5 216q106.5 76 156.5 203.5t50 287.5q0 159 -50 286.5t-156.5 203.5t-268.5 76q-161 0 -267 -76
t-156 -203.5t-50 -286.5t50 -287t156 -204t267 -76q162 0 268.5 76zM772 1852l307 -330h-136l-171 182l-169 -182h-137zM834.5 1974q-31.5 14 -52.5 34t-47 51q-28 34 -48.5 50.5t-48.5 16.5q-42 0 -66.5 -40t-24.5 -113h-100q0 123 52 191.5t143 68.5q55 0 90.5 -25
t74.5 -71q30 -35 52 -52.5t52 -17.5q37 0 60.5 42.5t23.5 115.5h103q0 -124 -51 -194.5t-138 -70.5q-43 0 -74.5 14z" />
    <glyph glyph-name="uni1ED7" unicode="&#x1ed7;" horiz-adv-x="1145" 
d="M316 52.5q-112 69.5 -174.5 188t-62.5 261.5q0 141 62.5 259t174.5 186.5t255 68.5t256 -68.5t176 -186.5t63 -259q0 -142 -63 -261t-176 -188.5t-256 -69.5t-255 69.5zM743 180q72 50 109.5 134.5t37.5 187.5q0 102 -37.5 185.5t-109.5 132.5t-172 49
q-99 0 -170.5 -48.5t-108.5 -132t-37 -186.5t37 -188t108.5 -134.5t170.5 -49.5q100 0 172 50zM571 1438l307 -330h-136l-171 182l-169 -182h-137zM633.5 1561q-31.5 14 -52.5 34t-47 51q-28 34 -48.5 50.5t-48.5 16.5q-42 0 -66.5 -40t-24.5 -113h-100q0 123 52 191.5
t143 68.5q55 0 90.5 -25t74.5 -71q30 -35 52 -52.5t52 -17.5q37 0 60.5 42.5t23.5 115.5h103q0 -124 -51 -194.5t-138 -70.5q-43 0 -74.5 14z" />
    <glyph glyph-name="Ygrave" unicode="&#x1ef2;" horiz-adv-x="1325" 
d="M571 543l-535 870h213l412 -699l414 699h214l-535 -870v-543h-183v543zM337 1827h182l221 -300h-127z" />
    <glyph glyph-name="ygrave" unicode="&#x1ef3;" horiz-adv-x="1024" 
d="M435 17l-414 982h187l317 -786l290 786h186l-556 -1428h-185zM186 1413h182l221 -300h-127z" />
    <glyph glyph-name="uni1EF8" unicode="&#x1ef8;" horiz-adv-x="1325" 
d="M571 543l-535 870h213l412 -699l414 699h214l-535 -870v-543h-183v543zM721.5 1562q-31.5 14 -52.5 34t-47 51q-28 34 -48.5 50.5t-48.5 16.5q-42 0 -66.5 -40t-24.5 -113h-100q0 123 52 191.5t143 68.5q55 0 90.5 -25t74.5 -71q30 -35 52 -52.5t52 -17.5q37 0 60.5 42.5
t23.5 115.5h103q0 -124 -51 -194.5t-138 -70.5q-43 0 -74.5 14z" />
    <glyph glyph-name="uni1EF9" unicode="&#x1ef9;" horiz-adv-x="1024" 
d="M435 17l-414 982h187l317 -786l290 786h186l-556 -1428h-185zM570.5 1148q-31.5 14 -52.5 34t-47 51q-28 34 -48.5 50.5t-48.5 16.5q-42 0 -66.5 -40t-24.5 -113h-100q0 123 52 191.5t143 68.5q55 0 90.5 -25t74.5 -71q30 -35 52 -52.5t52 -17.5q37 0 60.5 42.5
t23.5 115.5h103q0 -124 -51 -194.5t-138 -70.5q-43 0 -74.5 14z" />
    <glyph glyph-name="endash" unicode="&#x2013;" horiz-adv-x="1059" 
d="M160 680h739v-130h-739v130z" />
    <glyph glyph-name="emdash" unicode="&#x2014;" horiz-adv-x="2048" 
d="M0 680h2048v-130h-2048v130z" />
    <glyph glyph-name="uni2015" unicode="&#x2015;" horiz-adv-x="1551" 
d="M160 680h1231v-130h-1231v130z" />
    <glyph glyph-name="quoteleft" unicode="&#x2018;" horiz-adv-x="580" 
d="M347 839l-264 574h195l184 -574h-115z" />
    <glyph glyph-name="quoteright" unicode="&#x2019;" horiz-adv-x="580" 
d="M302 1413h195l-264 -574h-115z" />
    <glyph glyph-name="quotesinglbase" unicode="&#x201a;" horiz-adv-x="580" 
d="M302 263h195l-264 -574h-115z" />
    <glyph glyph-name="quotedblleft" unicode="&#x201c;" horiz-adv-x="935" 
d="M347 839l-264 574h195l184 -574h-115zM702 839l-264 574h195l184 -574h-115z" />
    <glyph glyph-name="quotedblright" unicode="&#x201d;" horiz-adv-x="935" 
d="M302 1413h195l-264 -574h-115zM657 1413h195l-264 -574h-115z" />
    <glyph glyph-name="quotedblbase" unicode="&#x201e;" horiz-adv-x="948" 
d="M302 263h195l-264 -574h-115zM670 263h195l-264 -574h-115z" />
    <glyph glyph-name="dagger" unicode="&#x2020;" horiz-adv-x="820" 
d="M333 861h-240v154h240v398h154v-398h240v-154h-240v-1066h-154v1066z" />
    <glyph glyph-name="daggerdbl" unicode="&#x2021;" horiz-adv-x="909" 
d="M378 193h-241v154h241v514h-241v154h241v398h154v-398h239v-154h-239v-514h239v-154h-239v-398h-154v398z" />
    <glyph glyph-name="bullet" unicode="&#x2022;" horiz-adv-x="821" 
d="M291.5 276q-54.5 32 -86.5 86.5t-32 118.5t32 119t86.5 87t118.5 32t119 -32t87 -87t32 -119t-32 -118.5t-87 -86.5t-119 -32t-118.5 32z" />
    <glyph glyph-name="uni2023" unicode="&#x2023;" horiz-adv-x="902" 
d="M236 847l574 -332l-574 -333v665z" />
    <glyph glyph-name="twodotenleader" unicode="&#x2025;" horiz-adv-x="1047" 
d="M231 235h171v-235h-171v235zM645 235h171v-235h-171v235z" />
    <glyph glyph-name="ellipsis" unicode="&#x2026;" horiz-adv-x="1461" 
d="M231 235h171v-235h-171v235zM645 235h171v-235h-171v235zM1059 235h170v-235h-170v235z" />
    <glyph glyph-name="perthousand" unicode="&#x2030;" horiz-adv-x="2129" 
d="M248.5 832q-62.5 44 -95 117.5t-32.5 159.5t32 159.5t93 117.5t144 44q79 0 141.5 -42t98 -115.5t35.5 -164.5t-34.5 -164t-96 -114.5t-137.5 -41.5q-86 0 -148.5 44zM1094 1413h121l-814 -1413h-121zM475 930q35 26 54.5 72.5t19.5 105.5q0 89 -42.5 147.5t-116.5 58.5
t-113.5 -59t-39.5 -146t41 -146t119 -59q43 0 78 26zM958.5 27q-62.5 44 -95 117.5t-32.5 159.5t32 159.5t93 117.5t144 44q79 0 141.5 -42t98 -115.5t35.5 -164.5t-34.5 -164t-96 -114.5t-137.5 -41.5q-86 0 -148.5 44zM1592.5 27q-62.5 44 -95.5 117.5t-33 159.5t32 159.5
t93.5 117.5t144.5 44q79 0 141.5 -42t97.5 -115t35 -165q0 -91 -34.5 -164t-95.5 -114.5t-138 -41.5q-85 0 -147.5 44zM1185 125q35 26 54.5 72.5t19.5 105.5q0 89 -42.5 147.5t-116.5 58.5t-113.5 -59t-39.5 -146t41 -146t119 -59q43 0 78 26zM1818.5 125q34.5 26 54 72.5
t19.5 105.5q0 89 -42.5 147.5t-115.5 58.5q-74 0 -114 -59t-40 -146q0 -86 41.5 -145.5t118.5 -59.5q44 0 78.5 26z" />
    <glyph glyph-name="uni2031" unicode="&#x2031;" horiz-adv-x="2763" 
d="M248.5 832q-62.5 44 -95 117.5t-32.5 159.5t32 159.5t93 117.5t144 44q79 0 141.5 -42t98 -115.5t35.5 -164.5t-34.5 -164t-96 -114.5t-137.5 -41.5q-86 0 -148.5 44zM1094 1413h121l-814 -1413h-121zM475 930q35 26 54.5 72.5t19.5 105.5q0 89 -42.5 147.5t-116.5 58.5
t-113.5 -59t-39.5 -146t41 -146t119 -59q43 0 78 26zM958.5 27q-62.5 44 -95 117.5t-32.5 159.5t32 159.5t93 117.5t144 44q79 0 141.5 -42t98 -115.5t35.5 -164.5t-34.5 -164t-96 -114.5t-137.5 -41.5q-86 0 -148.5 44zM1592.5 27q-62.5 44 -95.5 117.5t-33 159.5t32 159.5
t93.5 117.5t144.5 44q79 0 141.5 -42t97.5 -115t35 -165q0 -91 -34.5 -164t-95.5 -114.5t-138 -41.5q-85 0 -147.5 44zM2225.5 27q-62.5 44 -95 117.5t-32.5 159.5t32 159.5t93 117.5t144 44q79 0 141.5 -42t98 -115.5t35.5 -164.5t-34.5 -164t-96 -114.5t-137.5 -41.5
q-86 0 -148.5 44zM1185 125q35 26 54.5 72.5t19.5 105.5q0 89 -42.5 147.5t-116.5 58.5t-113.5 -59t-39.5 -146t41 -146t119 -59q43 0 78 26zM1818.5 125q34.5 26 54 72.5t19.5 105.5q0 89 -42.5 147.5t-115.5 58.5q-74 0 -114 -59t-40 -146q0 -86 41.5 -145.5t118.5 -59.5
q44 0 78.5 26zM2452 125q35 26 54.5 72.5t19.5 105.5q0 89 -42.5 147.5t-116.5 58.5t-113.5 -59t-39.5 -146t41 -146t119 -59q43 0 78 26z" />
    <glyph glyph-name="guilsinglleft" unicode="&#x2039;" horiz-adv-x="608" 
d="M54 511l407 346v-150l-232 -196l232 -196v-150z" />
    <glyph glyph-name="guilsinglright" unicode="&#x203a;" horiz-adv-x="608" 
d="M147 315l232 196l-232 196v150l407 -346l-407 -346v150z" />
    <glyph glyph-name="fraction" unicode="&#x2044;" horiz-adv-x="301" 
d="M496 1413h122l-813 -1413h-122z" />
    <glyph glyph-name="Euro" unicode="&#x20ac;" horiz-adv-x="1332" 
d="M569.5 48.5q-106.5 65.5 -172 177t-92.5 253.5h-172l59 127h95q-4 45 -4 101q0 26 5 111h-155l59 131h115q28 138 93.5 247t171 172.5t247.5 63.5q124 0 222.5 -50.5t168.5 -148.5l-110 -86q-95 149 -279 149q-149 0 -240 -93t-122 -254h526l-59 -128h-489
q-6 -52 -6 -104t5 -105h549l-59 -127h-467q30 -163 121.5 -263t240.5 -100q166 0 273 144l103 -101q-69 -89 -163.5 -135.5t-212.5 -46.5q-145 0 -251.5 65.5z" />
    <glyph glyph-name="uni20B1" unicode="&#x20b1;" horiz-adv-x="1382" 
d="M1275 976h-98q-7 -117 -69 -199.5t-168.5 -125.5t-245.5 -43h-231v-608h-175v976h-130v75h130v362h406q135 0 240 -43t168.5 -124.5t73.5 -194.5h99v-75zM463 1051h537q-14 95 -92 146t-214 51h-231v-197zM1002 976h-539v-203h231q286 0 308 203z" />
    <glyph glyph-name="uni20B3" unicode="&#x20b3;" horiz-adv-x="1623" 
d="M312 289h-140v151h199l67 181h-266v151h328l242 641h140l242 -641h327v-151h-267l67 -181h200v-151h-140l108 -289h-190l-103 289h-627l-103 -289h-193zM950 772l-137 389l-137 -389h274zM1070 440l-64 181h-386l-64 -181h514z" />
    <glyph glyph-name="uni20B4" unicode="&#x20b4;" horiz-adv-x="1473" 
d="M1310 933v-123h-1150v123h760q62 57 62 135q0 59 -30 106t-83 73t-118 26q-89 0 -157 -42t-113 -125l-146 90q67 119 171.5 176.5t238.5 57.5q114 0 208.5 -45t149.5 -129t55 -196q0 -69 -29 -127h181zM160 664h1150v-123h-777q-87 -67 -87 -167q0 -70 38 -122
t105.5 -80.5t153.5 -28.5q124 0 209 63.5t112 180.5l174 -40q-28 -116 -101.5 -197t-178 -122.5t-226.5 -41.5q-128 0 -233.5 46t-167 130t-61.5 192t70 187h-180v123z" />
    <glyph glyph-name="uni20B8" unicode="&#x20b8;" horiz-adv-x="1430" 
d="M151 1412h1128v-144h-1128v144zM627 940h-476v145h1128v-145h-476v-940h-176v940z" />
    <glyph glyph-name="uni20BD" unicode="&#x20bd;" horiz-adv-x="1369" 
d="M343 297h-181v138h181v186h-181v152h181v640h407q143 0 252.5 -48t170 -140t60.5 -218t-60 -212.5t-168.5 -130t-254.5 -43.5h-232v-186h327v-138h-327v-297h-175v297zM750 773q155 0 231.5 59.5t76.5 174.5t-78.5 178t-229.5 63h-232v-475h232z" />
    <glyph glyph-name="uni2116" unicode="&#x2116;" horiz-adv-x="2373" 
d="M1057 1413h170v-1413h-182l-665 1128v-1128h-170v1413h180l667 -1123v1123zM1632.5 379q-93.5 58 -145.5 157t-52 219q0 118 52 216.5t145.5 156t212.5 57.5t213.5 -57.5t147 -156t52.5 -216.5q0 -119 -52.5 -218.5t-147 -157.5t-213.5 -58t-212.5 58zM1702 1022
q-60 -41 -91 -111t-31 -156q0 -87 31 -158t91 -113t143 -42q84 0 144.5 42t92 113t31.5 158q0 85 -31.5 155.5t-92 111.5t-144.5 41q-83 0 -143 -41zM1448 130h774v-130h-774v130z" />
    <glyph glyph-name="trademark" unicode="&#x2122;" horiz-adv-x="1256" 
d="M231 1313h-153v100h413v-100h-152v-436h-108v436zM605 1413h176l112 -356l112 356h172v-536h-108v422l-141 -399h-69l-146 403v-426h-108v536z" />
    <glyph glyph-name="uni2126" unicode="&#x2126;" horiz-adv-x="1667" 
d="M155 142h380l3 5q-102 61 -179.5 154.5t-119.5 206t-42 227.5q0 118 44 234.5t119 197.5q89 95 217.5 151.5t255.5 56.5t255.5 -57t217.5 -153q74 -80 118 -197t44 -237q0 -123 -40 -238t-114 -206t-172 -145v-5h368v-137h-554v172q110 23 192.5 99t127 194.5t44.5 264.5
q0 96 -31.5 186.5t-84.5 147.5q-70 77 -171 122.5t-200 45.5t-199 -46t-171 -122q-54 -59 -85.5 -148.5t-31.5 -185.5q0 -141 44.5 -258t126.5 -195t192 -106v-171h-554v142z" />
    <glyph glyph-name="arrowleft" unicode="&#x2190;" horiz-adv-x="2305" 
d="M84 639l1020 565l57 -114l-694 -386l1731 -2v-130l-1732 2l695 -390l-57 -114z" />
    <glyph glyph-name="arrowright" unicode="&#x2192;" horiz-adv-x="2305" 
d="M1144 184l695 390l-1732 -2v130l1731 2l-694 386l57 114l1020 -565l-1020 -569z" />
    <glyph glyph-name="partialdiff" unicode="&#x2202;" horiz-adv-x="1332" 
d="M346.5 46q-100.5 58 -154.5 161t-54 235q0 166 74 296.5t198.5 203.5t270.5 73q194 0 314 -207q3 77 -11 144q-19 175 -100.5 262.5t-215.5 87.5q-93 0 -169 -43.5t-115 -141.5l-125 39q51 129 162 200t262 71q244 0 364 -180.5t120 -494.5q0 -216 -67 -389.5t-199 -274
t-319 -100.5q-135 0 -235.5 58zM794.5 189q86.5 55 136 144t60.5 191q1 9 1 26q0 82 -31 156.5t-96.5 122t-163.5 47.5q-125 0 -217 -59.5t-140.5 -158t-48.5 -214.5q0 -97 39 -167t106.5 -106.5t151.5 -36.5q116 0 202.5 55z" />
    <glyph glyph-name="uni2206" unicode="&#x2206;" horiz-adv-x="1343" 
d="M671 1471l583 -1471h-1165zM1045 143l-374 977l-373 -977h747z" />
    <glyph glyph-name="product" unicode="&#x220f;" horiz-adv-x="1347" 
d="M268 1270h-98v143h1007v-143h-98v-1270h-143v1270h-524v-1270h-144v1270z" />
    <glyph glyph-name="summation" unicode="&#x2211;" horiz-adv-x="1317" 
d="M1182 1252h-793l529 -545l-529 -546h793v-161h-1063v98l570 609l-570 608v98h1063v-161z" />
    <glyph glyph-name="minus" unicode="&#x2212;" horiz-adv-x="1245" 
d="M245 694h754v-130h-754v130z" />
    <glyph glyph-name="radical" unicode="&#x221a;" horiz-adv-x="1251" 
d="M243 552h-152v144h254l179 -497l487 1214h154l-650 -1583z" />
    <glyph glyph-name="infinity" unicode="&#x221e;" horiz-adv-x="1983" 
d="M355 404.5q-88 48.5 -136 134t-48 193.5t48 193t136 133.5t203 48.5q116 0 228.5 -69t201.5 -189q95 122 208 190t228 68t203 -48.5t136 -133.5t48 -193t-48 -193.5t-136 -134t-203 -48.5q-116 0 -228.5 68.5t-207.5 190.5q-90 -122 -202 -190.5t-228 -68.5
q-115 0 -203 48.5zM750.5 555q88.5 61 160.5 177q-72 116 -160.5 176.5t-171.5 60.5q-74 0 -132.5 -29.5t-91 -83.5t-32.5 -124t32.5 -124.5t91 -84t132.5 -29.5q83 0 171.5 61zM1536 523.5q58 29.5 91 84t33 124.5t-33 124t-91 83.5t-132 29.5q-86 0 -176 -63t-164 -174
q74 -112 164 -175t176 -63q74 0 132 29.5z" />
    <glyph glyph-name="integral" unicode="&#x222b;" horiz-adv-x="975" 
d="M79 -326q117 0 186.5 29t101 91.5t31.5 168.5v1170q0 87 38.5 157t104.5 110t146 40q57 0 113 -21.5t104 -62.5l-92 -109q-60 49 -125 49q-40 0 -73 -19.5t-53 -57.5t-20 -91v-1169q0 -210 -120.5 -319t-341.5 -109v143z" />
    <glyph glyph-name="approxequal" unicode="&#x2248;" horiz-adv-x="1248" 
d="M702 728.5q-40 19.5 -65 47.5t-56 73q-24 35 -41.5 55.5t-41.5 34t-55 13.5q-55 0 -86 -51.5t-31 -140.5h-130q0 92 30.5 162t86.5 108t130 38q60 0 102 -20.5t68.5 -49t57.5 -74.5q35 -51 61.5 -75t66.5 -24q36 0 63.5 27t43 76t15.5 112h130q0 -97 -31.5 -172.5
t-88.5 -117t-132 -41.5q-57 0 -97 19.5zM702 269.5q-40 19.5 -65 47.5t-56 73q-24 35 -41.5 55.5t-41.5 34t-55 13.5q-55 0 -86 -52t-31 -141h-130q0 92 30.5 162t86.5 108.5t130 38.5q60 0 102 -20.5t68.5 -49t57.5 -74.5q35 -51 61.5 -75t66.5 -24q36 0 63.5 27t43 76
t15.5 112h130q0 -98 -31.5 -173t-88.5 -116.5t-132 -41.5q-57 0 -97 19.5z" />
    <glyph glyph-name="notequal" unicode="&#x2260;" horiz-adv-x="1189" 
d="M352 394h-160v145h247l152 266h-399v145h486l264 463h122l-265 -463h193v-145h-280l-152 -266h432v-145h-518l-224 -394h-122z" />
    <glyph glyph-name="lessequal" unicode="&#x2264;" horiz-adv-x="1353" 
d="M102 790l1023 583l64 -112l-825 -471l825 -472l-64 -111zM1233 0v-130h-1054v130h1054z" />
    <glyph glyph-name="greaterequal" unicode="&#x2265;" horiz-adv-x="1353" 
d="M164 318l825 472l-825 471l64 112l1023 -583l-1023 -583zM1174 -130h-1054v130h1054v-130z" />
    <glyph glyph-name="lozenge" unicode="&#x25ca;" horiz-adv-x="1195" 
d="M102 707l377 706h236l377 -706l-377 -707h-236zM612 91l312 616l-312 615h-29l-313 -615l313 -616h29z" />
    <glyph glyph-name="uniF8FF" unicode="&#xf8ff;" horiz-adv-x="1778" 
d="M500.5 43q-177.5 104 -281.5 281.5t-104 388.5t104 388.5t281.5 281.5t388.5 104t388.5 -104t281.5 -281.5t104 -388.5t-104 -388.5t-281.5 -281.5t-388.5 -104t-388.5 104zM1241.5 104.5q161.5 94.5 255.5 256t94 352.5t-94 352.5t-255.5 255.5t-352.5 94t-352.5 -94
t-256 -255.5t-94.5 -352.5t94.5 -352.5t256 -256t352.5 -94.5t352.5 94.5zM461 419.5q-10 9.5 -10 24.5v537q0 15 10 26t24 11q16 0 26.5 -11t10.5 -26v-537q0 -15 -10.5 -24.5t-26.5 -9.5q-14 0 -24 9.5zM863.5 419.5q-9.5 9.5 -9.5 24.5v537q0 15 10 26t25 11t25 -11
t10 -26v-537q0 -15 -10 -24.5t-25 -9.5q-16 0 -25.5 9.5zM1268 420l-271 268q-8 11 -8 25q0 16 8 24l271 269q9 12 22 12q14 0 25.5 -11.5t11.5 -25.5t-10 -25l-244 -243l244 -244q10 -10 10 -25q0 -13 -11.5 -23.5t-25.5 -10.5t-22 10zM595.5 687.5q-9.5 9.5 -9.5 25.5
q0 15 9.5 25t25.5 10h133q15 0 26 -10t11 -25t-11 -25t-26 -10h-133q-16 0 -25.5 9.5z" />
    <glyph glyph-name="i.loclTRK" horiz-adv-x="505" 
d="M168 999h169v-999h-169v999zM163 1413h178v-212h-178v212z" />
    <glyph glyph-name="g.ss01" horiz-adv-x="1190" 
d="M296 -405.5q-109 64.5 -174 175.5l129 94q39 -81 119.5 -133t188.5 -52q89 0 154.5 39t101.5 115.5t36 186.5v175q-48 -94 -136 -146t-195 -52q-133 0 -233 69t-154 185.5t-54 255.5q0 138 53.5 254.5t153.5 185.5t231 69q107 0 196.5 -52t137.5 -145v180h171v-979
q0 -151 -57 -261.5t-162 -169.5t-247 -59q-151 0 -260 64.5zM724 200q69 46 105 126t36 181q0 100 -36.5 181t-105.5 127.5t-163 46.5q-95 0 -165 -47t-107 -128t-37 -180q0 -100 37 -180t107 -126.5t165 -46.5t164 46z" />
    <glyph glyph-name="gbreve.ss01" horiz-adv-x="1189" 
d="M296 -405.5q-109 64.5 -174 175.5l129 94q39 -81 119.5 -133t188.5 -52q89 0 154.5 39t101.5 115.5t36 186.5v175q-48 -94 -136 -146t-195 -52q-133 0 -233 69t-154 185.5t-54 255.5q0 138 53.5 254.5t153.5 185.5t231 69q107 0 196.5 -52t137.5 -145v180h171v-979
q0 -151 -57 -261.5t-162 -169.5t-247 -59q-151 0 -260 64.5zM724 200q69 46 105 126t36 181q0 100 -36.5 181t-105.5 127.5t-163 46.5q-95 0 -165 -47t-107 -128t-37 -180q0 -100 37 -180t107 -126.5t165 -46.5t164 46zM361.5 1214q-76.5 68 -76.5 199h121q0 -80 50 -122
t137 -42q88 0 137.5 42t49.5 122h121q0 -132 -78 -199.5t-230 -67.5q-155 0 -231.5 68z" />
    <glyph glyph-name="uni0123.ss01" horiz-adv-x="1189" 
d="M668 1098h-178l241 304h104zM296 -405.5q-109 64.5 -174 175.5l129 94q39 -81 119.5 -133t188.5 -52q89 0 154.5 39t101.5 115.5t36 186.5v175q-48 -94 -136 -146t-195 -52q-133 0 -233 69t-154 185.5t-54 255.5q0 138 53.5 254.5t153.5 185.5t231 69q107 0 196.5 -52
t137.5 -145v180h171v-979q0 -151 -57 -261.5t-162 -169.5t-247 -59q-151 0 -260 64.5zM724 200q69 46 105 126t36 181q0 100 -36.5 181t-105.5 127.5t-163 46.5q-95 0 -165 -47t-107 -128t-37 -180q0 -100 37 -180t107 -126.5t165 -46.5t164 46z" />
    <glyph glyph-name="gdotaccent.ss01" horiz-adv-x="1189" 
d="M296 -405.5q-109 64.5 -174 175.5l129 94q39 -81 119.5 -133t188.5 -52q89 0 154.5 39t101.5 115.5t36 186.5v175q-48 -94 -136 -146t-195 -52q-133 0 -233 69t-154 185.5t-54 255.5q0 138 53.5 254.5t153.5 185.5t231 69q107 0 196.5 -52t137.5 -145v180h171v-979
q0 -151 -57 -261.5t-162 -169.5t-247 -59q-151 0 -260 64.5zM724 200q69 46 105 126t36 181q0 100 -36.5 181t-105.5 127.5t-163 46.5q-95 0 -165 -47t-107 -128t-37 -180q0 -100 37 -180t107 -126.5t165 -46.5t164 46zM504 1413h178v-212h-178v212z" />
    <glyph glyph-name="g.ss02" 
d="M828.5 116q74.5 -29 119 -91.5t44.5 -158.5q0 -98 -49.5 -171t-147 -112.5t-237.5 -39.5q-139 0 -249 37.5t-173.5 111.5t-63.5 180q0 40 11 75l152 89q-58 29 -96 82.5t-38 128.5q0 126 114 205q-71 92 -71 213q0 102 50.5 182t138 124.5t196.5 44.5q73 0 136 -20.5
t112 -57.5l152 132l87 -109l-149 -126q44 -82 44 -176q0 -103 -50.5 -181.5t-138 -121.5t-194.5 -43q-120 0 -212 53q-57 -39 -57 -101q0 -120 183 -120h219q93 0 167.5 -29zM416.5 852.5q-49.5 -28.5 -76.5 -78.5t-27 -112t26.5 -110t76 -75.5t115.5 -27.5t115 27t75 75.5
t26 110.5q0 63 -26 112.5t-75 78t-114 28.5q-66 0 -115.5 -28.5zM753.5 -282.5q75.5 43.5 75.5 134.5q0 151 -234 151h-237q-11 0 -17 1l-111 -104v-26q0 -83 68 -141.5t249 -58.5q131 0 206.5 43.5z" />
    <glyph glyph-name="gbreve.ss02" 
d="M828.5 116q74.5 -29 119 -91.5t44.5 -158.5q0 -98 -49.5 -171t-147 -112.5t-237.5 -39.5q-139 0 -249 37.5t-173.5 111.5t-63.5 180q0 40 11 75l152 89q-58 29 -96 82.5t-38 128.5q0 126 114 205q-71 92 -71 213q0 102 50.5 182t138 124.5t196.5 44.5q73 0 136 -20.5
t112 -57.5l152 132l87 -109l-149 -126q44 -82 44 -176q0 -103 -50.5 -181.5t-138 -121.5t-194.5 -43q-120 0 -212 53q-57 -39 -57 -101q0 -120 183 -120h219q93 0 167.5 -29zM416.5 852.5q-49.5 -28.5 -76.5 -78.5t-27 -112t26.5 -110t76 -75.5t115.5 -27.5t115 27t75 75.5
t26 110.5q0 63 -26 112.5t-75 78t-114 28.5q-66 0 -115.5 -28.5zM753.5 -282.5q75.5 43.5 75.5 134.5q0 151 -234 151h-237q-11 0 -17 1l-111 -104v-26q0 -83 68 -141.5t249 -58.5q131 0 206.5 43.5zM298.5 1214q-76.5 68 -76.5 199h121q0 -80 50 -122t137 -42
q88 0 137.5 42t49.5 122h121q0 -132 -78 -199.5t-230 -67.5q-155 0 -231.5 68z" />
    <glyph glyph-name="uni0123.ss02" 
d="M828.5 116q74.5 -29 119 -91.5t44.5 -158.5q0 -98 -49.5 -171t-147 -112.5t-237.5 -39.5q-139 0 -249 37.5t-173.5 111.5t-63.5 180q0 40 11 75l152 89q-58 29 -96 82.5t-38 128.5q0 126 114 205q-71 92 -71 213q0 102 50.5 182t138 124.5t196.5 44.5q73 0 136 -20.5
t112 -57.5l152 132l87 -109l-149 -126q44 -82 44 -176q0 -103 -50.5 -181.5t-138 -121.5t-194.5 -43q-120 0 -212 53q-57 -39 -57 -101q0 -120 183 -120h219q93 0 167.5 -29zM416.5 852.5q-49.5 -28.5 -76.5 -78.5t-27 -112t26.5 -110t76 -75.5t115.5 -27.5t115 27t75 75.5
t26 110.5q0 63 -26 112.5t-75 78t-114 28.5q-66 0 -115.5 -28.5zM753.5 -282.5q75.5 43.5 75.5 134.5q0 151 -234 151h-237q-11 0 -17 1l-111 -104v-26q0 -83 68 -141.5t249 -58.5q131 0 206.5 43.5zM594 1123h-178l241 304h104z" />
    <glyph glyph-name="gdotaccent.ss02" 
d="M828.5 116q74.5 -29 119 -91.5t44.5 -158.5q0 -98 -49.5 -171t-147 -112.5t-237.5 -39.5q-139 0 -249 37.5t-173.5 111.5t-63.5 180q0 40 11 75l152 89q-58 29 -96 82.5t-38 128.5q0 126 114 205q-71 92 -71 213q0 102 50.5 182t138 124.5t196.5 44.5q73 0 136 -20.5
t112 -57.5l152 132l87 -109l-149 -126q44 -82 44 -176q0 -103 -50.5 -181.5t-138 -121.5t-194.5 -43q-120 0 -212 53q-57 -39 -57 -101q0 -120 183 -120h219q93 0 167.5 -29zM416.5 852.5q-49.5 -28.5 -76.5 -78.5t-27 -112t26.5 -110t76 -75.5t115.5 -27.5t115 27t75 75.5
t26 110.5q0 63 -26 112.5t-75 78t-114 28.5q-66 0 -115.5 -28.5zM753.5 -282.5q75.5 43.5 75.5 134.5q0 151 -234 151h-237q-11 0 -17 1l-111 -104v-26q0 -83 68 -141.5t249 -58.5q131 0 206.5 43.5zM441 1413h178v-212h-178v212z" />
    <glyph glyph-name="T_h" horiz-adv-x="2111" 
d="M526 1255h-476v158h1261v-566q50 83 129.5 126t173.5 43q117 0 196.5 -52.5t118.5 -141.5t40 -200v-622h-172v591q0 128 -52.5 199.5t-170.5 71.5q-83 0 -142.5 -40t-90 -110.5t-30.5 -162.5v-549h-172v1255h-437v-1255h-176v1255z" />
    <glyph glyph-name="f_t" horiz-adv-x="1234" 
d="M791.5 60.5q-74.5 77.5 -74.5 218.5v577h-349v-856h-169v856h-166v143h166v80q0 113 48.5 192t132 119t185.5 40q192 0 320 -78v-353h271v-143h-271v-549q0 -91 37.5 -132.5t109.5 -41.5q32 0 64.5 8t59.5 20l1 -154q-27 -10 -69 -17t-84 -7q-138 0 -212.5 77.5zM720 999
v257q-27 17 -65.5 26.5t-81.5 9.5q-205 0 -205 -216v-77h352z" />
    <glyph glyph-name="t_t" horiz-adv-x="1362" 
d="M292.5 60.5q-78.5 77.5 -78.5 218.5v577h-176v143h179v276l165 122v-398h444v276l164 122v-398h294v-143h-294v-549q0 -91 41.5 -132.5t120.5 -41.5q34 0 69.5 8.5t61.5 19.5l2 -154q-28 -10 -72 -17t-87 -7q-146 0 -224.5 77t-78.5 219v577h-441v-549q0 -92 41 -133
t121 -41q34 0 69 8.5t61 19.5l2 -154q-28 -10 -72 -17t-87 -7q-146 0 -224.5 77.5z" />
    <glyph glyph-name="zero.lf" horiz-adv-x="1229" 
d="M235 198q-108 215 -108 509q0 296 104.5 510.5t378.5 214.5q176 0 287 -103t160 -267.5t49 -357.5q0 -192 -47.5 -354.5t-155.5 -264.5t-278 -102q-282 0 -390 215zM856.5 308.5q67.5 158.5 67.5 398.5q0 241 -70 398.5t-244 157.5q-179 0 -244.5 -158t-65.5 -398
t67.5 -398.5t252.5 -158.5q169 0 236.5 158.5z" />
    <glyph glyph-name="one.lf" horiz-adv-x="769" 
d="M567 1413v-1413h-173v1052h-347v135h223q65 0 97.5 28t32.5 88v110h167z" />
    <glyph glyph-name="two.lf" horiz-adv-x="1167" 
d="M1082 160v-160h-994v150q198 122 358 247.5t273.5 284t113.5 328.5q0 118 -66.5 189t-190.5 71q-146 0 -218.5 -96t-75.5 -249l-173 11q0 137 55.5 249t161 178t248.5 66q128 0 226.5 -50t153.5 -145.5t55 -227.5q0 -166 -98 -328t-245.5 -294t-302.5 -224h719z" />
    <glyph glyph-name="three.lf" horiz-adv-x="1183" 
d="M323.5 34.5q-114.5 51.5 -180.5 152.5t-66 242l168 10q0 -90 42.5 -156.5t119 -102t176.5 -35.5q94 0 169.5 32.5t119.5 94.5t44 147q0 107 -59.5 163t-146 73.5t-196.5 16.5v140q165 0 245 53.5t80 172.5q0 70 -33.5 121.5t-93 79t-133.5 27.5q-80 0 -140.5 -30
t-94 -85.5t-34.5 -130.5l-166 11q0 121 57 211.5t156 139t220 48.5q117 0 216 -46t157.5 -130t58.5 -195q0 -113 -66 -190.5t-182 -114.5q150 -31 236.5 -120t86.5 -228q0 -131 -67 -227t-182 -146t-254 -50q-143 0 -257.5 51.5z" />
    <glyph glyph-name="four.lf" horiz-adv-x="1187" 
d="M1138 496v-161h-229v-335h-173v335h-690v108l709 970h154v-917h229zM736 496v654l-466 -654h466z" />
    <glyph glyph-name="five.lf" horiz-adv-x="1184" 
d="M852.5 888.5q106.5 -63.5 168.5 -173t62 -240.5q0 -132 -67 -245t-182 -180t-250 -67q-119 0 -221 53.5t-171.5 148t-95.5 212.5l163 45q28 -131 111 -215t214 -84q90 0 163.5 46t115 123t41.5 165t-38.5 160.5t-109 114.5t-162.5 42q-84 0 -161 -41.5t-127 -116.5
l-167 45l131 732h747v-162h-607l-72 -396q133 97 281 97q127 0 233.5 -63.5z" />
    <glyph glyph-name="six.lf" horiz-adv-x="1133" 
d="M813 872.5q113 -64.5 179 -174t66 -238.5t-66 -238.5t-178.5 -174t-245.5 -64.5t-246 64.5t-179 174t-66 238.5q0 68 19 132t55 120l425 701h201l-294 -483q39 7 85 7q132 0 245 -64.5zM727.5 189.5q73.5 42.5 116 114t42.5 156.5q0 84 -43 156t-116 114.5t-159 42.5
t-159.5 -42.5t-116.5 -114.5t-43 -156q0 -85 43 -157t116 -114t160 -42q86 0 159.5 42.5z" />
    <glyph glyph-name="seven.lf" horiz-adv-x="1108" 
d="M1061 1413v-98l-671 -1315h-194l654 1252h-803v161h1014z" />
    <glyph glyph-name="eight.lf" horiz-adv-x="1184" 
d="M351 30.5q-112 47.5 -180.5 141.5t-68.5 227q0 128 66.5 224t180.5 142q-80 47 -124.5 125.5t-44.5 175.5q0 112 58 194.5t153 126t202 43.5q112 0 206.5 -45t150.5 -128.5t56 -194.5q0 -96 -45.5 -174t-124.5 -123q116 -48 180.5 -143.5t64.5 -221.5
q0 -134 -68.5 -228.5t-180 -141.5t-240.5 -47t-241 47.5zM721.5 845.5q54.5 28.5 85.5 81t31 122.5q0 71 -31 124t-86 81.5t-125 28.5q-65 0 -120 -26t-88.5 -77t-33.5 -123q0 -71 30 -125.5t85 -84.5t128 -30q70 0 124.5 28.5zM749.5 165.5q71.5 31.5 114 95.5t42.5 155
q0 86 -40.5 150.5t-112 99t-162.5 34.5q-92 0 -164 -34.5t-112.5 -98.5t-40.5 -149q0 -92 43 -156t115.5 -96t158.5 -32q87 0 158.5 31.5z" />
    <glyph glyph-name="nine.lf" horiz-adv-x="1133" 
d="M1037 821q-19 -64 -55 -120l-425 -701h-201l294 483q-39 -7 -85 -7q-132 0 -245 64.5t-179 174t-66 238.5t66 238.5t178.5 174t245.5 64.5t246 -64.5t179 -174t66 -238.5q0 -68 -19 -132zM290 797q43 -72 116 -114.5t159 -42.5t159.5 42.5t116.5 114.5t43 156
q0 85 -43 157t-116 114t-160 42q-86 0 -159.5 -42.5t-116 -114t-42.5 -156.5q0 -84 43 -156z" />
    <glyph glyph-name="zero.dnom" horiz-adv-x="757" 
d="M195.5 56.5q-70.5 66.5 -99 164.5t-28.5 203q0 106 27.5 204.5t96 165t183.5 66.5q107 0 177.5 -62.5t103.5 -162t33 -213.5q0 -112 -32 -210.5t-100.5 -160t-172.5 -61.5q-118 0 -188.5 66.5zM525.5 194q45.5 96 45.5 231t-46.5 229.5t-149.5 94.5q-104 0 -148.5 -95
t-44.5 -230t46 -230.5t154 -95.5q98 0 143.5 96z" />
    <glyph glyph-name="one.dnom" horiz-adv-x="458" 
d="M324 848v-848h-115v623h-205v90h128q82 0 82 73v62h110z" />
    <glyph glyph-name="two.dnom" horiz-adv-x="714" 
d="M662 105v-105h-627v96q125 76 222 148t171 166t74 194q0 67 -37.5 108t-109.5 41q-84 0 -126 -57.5t-44 -145.5l-113 8q0 82 33.5 150.5t97.5 109t152 40.5q77 0 136.5 -30.5t93 -88.5t33.5 -138q0 -97 -58.5 -191t-148.5 -171t-192 -134h443z" />
    <glyph glyph-name="three.dnom" horiz-adv-x="713" 
d="M191.5 21q-69.5 31 -110 92t-40.5 147l111 8q0 -81 54.5 -126.5t141.5 -45.5q82 0 137.5 42t55.5 119q0 88 -68 119.5t-166 30.5v78q188 0 188 125q0 68 -42 104t-106 36q-69 0 -112.5 -38.5t-44.5 -102.5l-109 7q0 74 35 129t95 84t133 29q71 0 131 -27.5t96 -78.5
t36 -118q0 -63 -34 -107t-97 -70q81 -18 128.5 -74.5t47.5 -136.5t-41 -138t-110.5 -88t-153.5 -30q-86 0 -155.5 31z" />
    <glyph glyph-name="four.dnom" horiz-adv-x="692" 
d="M659 309v-106h-136v-203h-115v203h-408v69l423 576h100v-539h136zM408 309v363l-258 -363h258z" />
    <glyph glyph-name="five.dnom" horiz-adv-x="724" 
d="M521.5 536q64.5 -39 102 -105.5t37.5 -145.5q0 -78 -41 -146t-110.5 -108.5t-150.5 -40.5q-72 0 -134 32.5t-104.5 89.5t-58.5 128l107 30q16 -75 64.5 -125.5t125.5 -50.5q51 0 93.5 27t66.5 72t24 94q0 50 -22.5 91.5t-64 66.5t-94.5 25q-47 0 -92.5 -24.5t-72.5 -65.5
l-109 26l79 442h455v-108h-362l-39 -215q76 50 159 50q77 0 141.5 -39z" />
    <glyph glyph-name="six.dnom" horiz-adv-x="653" 
d="M486 518.5q64 -38.5 102 -102.5t38 -137q0 -77 -39.5 -143.5t-108 -106t-151.5 -39.5q-81 0 -149.5 38.5t-108.5 104t-40 143.5q0 39 11.5 74.5t33.5 72.5l256 425h131l-199 -306q44 15 87 15q73 0 137 -38.5zM420 124q42 24 67 65t25 90q0 48 -25 89t-67 65.5t-92 24.5
t-92.5 -24.5t-67.5 -65.5t-25 -89q0 -49 25 -90t67.5 -65t92.5 -24t92 24z" />
    <glyph glyph-name="seven.dnom" horiz-adv-x="610" 
d="M609 848v-64l-382 -784h-129l373 741h-462v107h600z" />
    <glyph glyph-name="eight.dnom" horiz-adv-x="726" 
d="M215 18.5q-68 28.5 -110 85t-42 136.5q0 75 37.5 132t103.5 87q-46 29 -70.5 75.5t-24.5 102.5q0 68 35.5 118t93.5 76.5t124 26.5q69 0 127 -27t93 -77.5t35 -117.5q0 -56 -25.5 -102.5t-69.5 -74.5q66 -31 103 -87.5t37 -129.5q0 -81 -42 -138t-110.5 -85.5
t-147.5 -28.5t-147 28.5zM467.5 536q39.5 35 39.5 95t-39.5 95t-102.5 35q-61 0 -101.5 -32.5t-40.5 -92.5q0 -61 39.5 -98t103.5 -37q62 0 101.5 35zM493 129.5q52 40.5 52 116.5q0 73 -51 115t-132 42q-83 0 -134.5 -42t-51.5 -114q0 -76 53.5 -117t132.5 -41t131 40.5z
" />
    <glyph glyph-name="nine.dnom" horiz-adv-x="656" 
d="M573 406l-247 -406h-133l173 284q-19 -3 -40 -3q-80 0 -148 39t-108.5 105t-40.5 144q0 79 40 145t108.5 105t148.5 39q82 0 150.5 -39t108.5 -105t40 -145q0 -89 -52 -163zM167 479q25 -41 67 -65.5t92 -24.5q51 0 93.5 24.5t67.5 65.5t25 90q0 50 -25 91.5t-67.5 65.5
t-93.5 24q-50 0 -92 -24t-67 -65.5t-25 -91.5q0 -49 25 -90z" />
    <glyph glyph-name="zero.numr" horiz-adv-x="757" 
d="M195.5 629.5q-70.5 66.5 -99 164.5t-28.5 203q0 106 27.5 204.5t96 165t183.5 66.5q107 0 177.5 -62.5t103.5 -162t33 -213.5q0 -112 -32 -210.5t-100.5 -160t-172.5 -61.5q-118 0 -188.5 66.5zM525.5 767q45.5 96 45.5 231t-46.5 229.5t-149.5 94.5q-104 0 -148.5 -95
t-44.5 -230t46 -230.5t154 -95.5q98 0 143.5 96z" />
    <glyph glyph-name="one.numr" horiz-adv-x="458" 
d="M324 1421v-848h-115v623h-205v90h128q82 0 82 73v62h110z" />
    <glyph glyph-name="two.numr" horiz-adv-x="714" 
d="M662 678v-105h-627v96q125 76 222 148t171 166t74 194q0 67 -37.5 108t-109.5 41q-84 0 -126 -57.5t-44 -145.5l-113 8q0 82 33.5 150.5t97.5 109t152 40.5q77 0 136.5 -30.5t93 -88.5t33.5 -138q0 -97 -58.5 -191t-148.5 -171t-192 -134h443z" />
    <glyph glyph-name="three.numr" horiz-adv-x="713" 
d="M191.5 594q-69.5 31 -110 92t-40.5 147l111 8q0 -81 54.5 -126.5t141.5 -45.5q82 0 137.5 42t55.5 119q0 88 -68 119.5t-166 30.5v78q188 0 188 125q0 68 -42 104t-106 36q-69 0 -112.5 -38.5t-44.5 -102.5l-109 7q0 74 35 129t95 84t133 29q71 0 131 -27.5t96 -78.5
t36 -118q0 -63 -34 -107t-97 -70q81 -18 128.5 -74.5t47.5 -136.5t-41 -138t-110.5 -88t-153.5 -30q-86 0 -155.5 31z" />
    <glyph glyph-name="four.numr" horiz-adv-x="692" 
d="M659 874v-106h-136v-203h-115v203h-408v69l423 576h100v-539h136zM408 874v363l-258 -363h258z" />
    <glyph glyph-name="five.numr" horiz-adv-x="724" 
d="M521.5 1101q64.5 -39 102 -105.5t37.5 -145.5q0 -78 -41 -146t-110.5 -108.5t-150.5 -40.5q-72 0 -134 32.5t-104.5 89.5t-58.5 128l107 30q16 -75 64.5 -125.5t125.5 -50.5q51 0 93.5 27t66.5 72t24 94q0 50 -22.5 91.5t-64 66.5t-94.5 25q-47 0 -92.5 -24.5
t-72.5 -65.5l-109 26l79 442h455v-108h-362l-39 -215q76 50 159 50q77 0 141.5 -39z" />
    <glyph glyph-name="six.numr" horiz-adv-x="653" 
d="M486 1084.5q64 -38.5 102 -103t38 -137.5q0 -77 -39.5 -143.5t-108 -106t-151.5 -39.5q-81 0 -149.5 38.5t-108.5 104t-40 143.5q0 40 11 75t34 72l256 425h131l-198 -305q44 15 86 15q73 0 137 -38.5zM420 689q42 24 67 65t25 90q0 48 -25 89t-67 65.5t-92 24.5
t-92.5 -24.5t-67.5 -65.5t-25 -89q0 -49 25 -90t67.5 -65t92.5 -24t92 24z" />
    <glyph glyph-name="seven.numr" horiz-adv-x="610" 
d="M609 1413v-64l-382 -784h-129l373 741h-462v107h600z" />
    <glyph glyph-name="eight.numr" horiz-adv-x="726" 
d="M215 591.5q-68 28.5 -110 85t-42 136.5q0 75 37.5 132t103.5 87q-46 29 -70.5 75.5t-24.5 102.5q0 68 35.5 118t93.5 76.5t124 26.5q69 0 127 -27t93 -77.5t35 -117.5q0 -56 -25.5 -102.5t-69.5 -74.5q66 -31 103 -87.5t37 -129.5q0 -81 -42 -138t-110.5 -85.5
t-147.5 -28.5t-147 28.5zM467.5 1109q39.5 35 39.5 95t-39.5 95t-102.5 35q-61 0 -101.5 -32.5t-40.5 -92.5q0 -61 39.5 -98t103.5 -37q62 0 101.5 35zM493 702.5q52 40.5 52 116.5q0 73 -51 115t-132 42q-83 0 -134.5 -42t-51.5 -114q0 -76 53.5 -117t132.5 -41t131 40.5z
" />
    <glyph glyph-name="nine.numr" horiz-adv-x="656" 
d="M575 983l-249 -410h-133l173 285q-20 -3 -40 -3q-80 0 -148 39t-108.5 105t-40.5 144q0 79 40 145t108.5 105t148.5 39q82 0 150.5 -39t108.5 -105t40 -145q0 -88 -50 -160zM167 1053q25 -41 67 -65.5t92 -24.5q51 0 93.5 24.5t67.5 65.5t25 90t-25 90.5t-67.5 66
t-93.5 24.5q-50 0 -92 -24.5t-67 -66t-25 -90.5t25 -90z" />
    <glyph glyph-name="caroncomb.alt" horiz-adv-x="0" 
d="M-253 1413h178l-192 -431h-103z" />
    </font>
</defs>
</svg>
